2 сезон

iTunes

MVO

1

2 сезон

iTunes

iTunes

1 сезон

RePack

30

Новинка

ВАЖНО

ИГРА 18+

pack

RePack

MK11
pack

Легкие деньги

RePack

jed

RePack

fifa19

RePack

RDR2

RePack

NEED FOR SPEED™ PAYBACK

4 сезон

9 сезон

Бесстыжие 9 сезон

Все сериалы

все сериалы на PB.wtf

RePack

FAR CRY 5

Anonymous, добрый день, мы не успеваем собрать деньги на оплату серверов за декабрь и январь, помогите нам пожалуйста в это трудное время. В качестве благодарности мы отключим Вам всю рекламу на сайте (укажите свой ник в строку Ваше имя)!

×
  
Magnet ссылка

Зачётный препод / Fack ju Göhte (Бора Дагтекин ) [2013, комедия, HDRip] DUB Лицензия pb.wtf

Зачётный препод через торрент pb.wtf

Раздают: 1 [ 0 KB/s ]
Размер: 1.46 GB | Добавлен: 6 лет назад | Торрент скачан:2886 раз
Скачать  

26-01-2015 14:11 Зачётный препод Скачать торрент  

Зачётный препод / Fack ju Göhte

Год выпуска: 2013
Страна: Германия
Жанр: комедия
Продолжительность: 01:55:40
Перевод: Дубляж - [Лицензия]
Режиссер: Бора Дагтекин
В ролях: Элиас ЭмБарек (Zeki Müller), Каролина Херфурт (Lisi Schnabelstedt), Катя Риман (Direktorin Gudrun), Яна Палласке (Charlie), Алвара Хёфельс (Caro), Йелла Хаазе (Chantal), Макс фон Гробен (Daniel / Danger), Анна-Лена Кленке (Laura), Гизем Эмре (Zeynep), Арам Арами (Burak), Руна Грайнер (Maike 10a), Валентина Паде (Greta 10a)
Описание:
Незадачливый грабитель банков Зеки Мюллер после тринадцати месяцев отсидки выходит из тюрьмы. Он отправляется на поиски награбленной добычи, которая была спрятана на стройке. Вместе с подружкой они думали, что там идёт всего-навсего прокладка труб. Каково же удивление горе-грабителя, когда он обнаруживает на нужном месте новенький школьный спортзал!
Чтобы добраться до награбленного, Зеки пытается устроиться на место школьного сторожа. Но в результате лёгкого недопонимания вместо этого его берут в качестве учителя на замену. Ему достаётся самый буйный и ненормальный класс во всей школе - 10 «Б». Используя несколько необычные методы, бывший грабитель неожиданно находит общий язык с учениками. Одновременно с этим по ночам он пытается добраться до спрятанной добычи и влюбляется в коллегу-учительницу Лиси.
Рейтинг:

Качество: HDRip
Формат: AVI
Видео кодек: XviD
Аудио кодек:AC3
Видео: XviD, 720x304 (2.35:1), 1349 kbps, 24 fps, 0,243 bpp
Аудио: AC3 / 5.1 / 48 kHz / 448 kbps / 16 bit

Код:

General
Complete name                            : D:\Торенты\5ack.ju.Gohte.2013.D.HDRip.
Format                                   : AVI
Format/Info                              : Audio Video Interleave
File size                                : 1.46 GiB
Duration                                 : 1h 55mn
Overall bit rate                         :  1349 Kbps

Director                                 : 3imeMachi9e&Kolbas
Writing application                      : VirtualDubMod 1.5.10.3 | www.virtualdub-fr.org || (build 2550/release)
Writing library                          : VirtualDubMod build 2550/release
Copyright                                : UNIONGANG&RUSTORRENTS

Video
ID                                       : 0
Format                                   : MPEG-4 Visual
Format profile                           : Advanced Simple@L5
Format settings, BVOP                    : 3
Format settings, QPel                    : No
Format settings, GMC                     : No warppoints
Format settings, Matrix                  : Custom
Codec ID                                 : XVID
Codec ID/Hint                            : XviD
Duration                                 : 1h 55mn
Bit rate                                 : 1 279 Kbps
Width                                    : 720 pixels
Height                                   : 304 pixels
Display aspect ratio                     : 2.35:1
Frame rate                               : 24.000 fps
Color space                              : YUV
Chroma subsampling                       : 4:2:0
Bit depth                                : 8 bits
Scan type                                : Progressive
Compression mode                         : Lossy
Bits/(Pixel*Frame)                       : 0.243
Stream size                              : 1.03 GiB (71%)
Writing library                          : XviD 1.2.1 (UTC 2008-12-04)

Audio
ID                                       : 1
Format                                   : AC-3
Format/Info                              : Audio Coding 3
Mode extension                           : CM (complete main)
Codec ID                                 : 2000
Duration                                 : 1h 55mn
Bit rate mode                            : Constant
Bit rate                                 : 448 Kbps
Channel(s)                               : 6 channels
Channel positions                        : Front: L C R, Side: L R, LFE
Sampling rate                            : 48.0 KHz
Bit depth                                : 16 bits
Compression mode                         : Lossy
Stream size                              : 371 MiB (25%)
Alignment                                : Split accross interleaves

pb.wtf



Скачать Зачётный препод через торрент http://i59.fastpic.ru/big/2015/0126/29/49a60fdd88d89d827704eefb766bf829.jpg Скачать фильм Зачётный препод через торрент бесплантно в хорошем качестве Описание: Незадачливый грабитель банков Зеки Мюллер после тринадцати месяцев отсидки выходит из тюрьмы. Он отправляется на поиски ... 9.1 10 51
Info! Золотая раздача, скачанное не засчитывается.
Торрент: Зарегистрирован [2015-01-26 14:11] · скачан: 2 886 раз
Статус: √ проверено
Размер: 1.46 GB
Как cкачать? Как скачать Зачётный препод через торрент | UTorrent

% Раздел Тема Автор DL S | L
Фильмы [HD 720p, 1080p] (Хороший звук DUB, MVO) [ 17.02 GB ] Зачётный препод / Fack ju Göhte [2013 BDRip 1080p] DUB Ворон Скачать
1 | 0

28-11-2019 20:33  

Отключить всю рекламу на сайте

27-01-2015 09:31 Зачётный препод Скачать торрент  

есть пару моментов поржать, чем то напоминает физрукаpb.wtf



03-02-2015 18:01 Зачётный препод Скачать торрент  

хороший добрый фильмецpb.wtf



03-03-2015 17:30 Зачётный препод Скачать торрент  

Всем советую, смотрели с женой, ржали весь фильм, может конечно под настроение так попало, но после просмотра остались только позитивные эмоции... 8/10pb.wtf



15-03-2016 12:32 Зачётный препод Скачать торрент  

ПРИКОЛЬНЫЙ ФИЛЬМ.. ДАЖЕ ФРИЦЫ НАУЧИЛИСЬ СНИМАТЬ. pb.wtf



    Дорогой пользователь! Огромная просьба, поблагодарите релизера, оцените раздачу и оставьте свои комментарий, если Вы скачали Зачётный препод через торрент бесплатно! Внесите свою лепту в развитие PiratBit!
    Комментировать посты могут только пользователи прошедшие не сложную регистрацию
    Показать сообщения:    

    Зачётный препод через торрент
    Скачать бесплатно Зачётный препод
    Зачётный препод скачать торрент
    Зачётный препод смотреть онлайн
    Cкачать фильм Зачётный препод бесплатно
    Зачётный препод скачать торрент в хорошем качестве
    Зачётный препод смотреть онлайн бесплатно в хорошем качестве


    Вы не можете начинать темы
    Вы не можете отвечать на сообщения
    Вы не можете редактировать свои сообщения
    Вы не можете удалять свои сообщения
    Вы не можете голосовать в опросах
    Вы не можете прикреплять файлы к сообщениям
    Вы можете скачивать файлы