Ссылка на приватное зеркало нашего сайта всего за 1$. Внимание количество ограничено!!!

2 сезон

iTunes

1 сезон

1

iTunes

iTunes

iTunes

1 сезон

RePack

30

ИГРА 18+

pack

ВАЖНО

!!Акция!!

Alien_RageХит недели

RePack

MK11
pack

Забери бонус

RePack

jed

!!Акция!!

Alien_Rage

RePack

fifa19

RePack

Assassins Creed: Odyssey

RePack

NEED FOR SPEED™ PAYBACK

4 сезон

9 сезон

Бесстыжие 9 сезон

Все сериалы

все сериалы на PB.wtf

RePack

FAR CRY 5
  

Логово зверя / Прибежище / Haunt (Мак Картер ) [2013, ужасы, детектив, BDRip 1080p, Дубляж] iTunes pb.wtf

Логово зверя через торрент pb.wtf

Размер: 7.65 GB | Добавлен: 5 лет 8 мес. назад | Торрент скачан:165 раз
Скачать  

26-01-2015 14:27 Логово зверя Скачать торрент  

Логово зверя / Прибежище / Haunt

Год выпуска: 2013
Страна: США
Жанр: ужасы, детектив
Продолжительность: 01:25:39
Перевод: Дубляж - [Лицензия / iTunes]
Режиссер: Мак Картер
В ролях: Харрисон Гилбертсон (Evan Asher), Лиана Либерато (Sam), Джеки Уивер (Janet Morello), Айони Скай (Emily Asher), Даниэль Чакран (Sara Asher), Карл Хадра (Franklin Morello), Себастьян Майкл Барр (Matthew Morello), Брук Келли (Oldest Morello Daughter), Брайан Уиммер (Alan Asher), Элла Харрис (Anita Asher), Мэгги Скотт (Youngest Morello Daughter), Джен Броберг (Meredith Tanner)
Описание:
Семья 18-ти летнего Эвана переезжает в новый дом, прошлые владельцы которого погибли при странных обстоятельствах. Единственная выжившая хозяйка дома - Джанет отказывается раскрывать тайну трагической гибели родных. Отправившись как-то раз ночью на прогулку, Эван встречает прекрасную девушку Саманту. Подростки начинают тесно общаться. Их общий интерес - таинственный дом семьи Ашер. Сэм рассказывает Эвану о том, что случилось с прошлыми владельцами дома. Герои решают выйти с призраками на прямой контакт. Но становится очевидно: не все тайны стоит разгадывать, ибо за ними кроется нечто совершенно ужасающее...
Рейтинг:

MPAA: R - Лицам до 17 лет обязательно присутствие взрослого
Качество: BDRip 1080p
Формат: MKV
Видео кодек: AVC
Аудио кодек:AC3, DTS-HD
Видео: AVC, 1920x808 (2.40:1), 10584 kbps, 24 fps, 0,284 bpp
Аудио №1: русский / AC3 / 5.1 / 48 kHz / 384 kbps / 16 bit ||
Аудио №2: английский / DTS-HD / 5.1 / 48 kHz / 1560 kbps / 24 bit (Core: 5.1 / 48 kHz / 1510 kbps / 24 bit)
Навигация по главам: есть

Код:

General
Unique ID                                : 176332690766616249357655114569488038149 (0x84A870E0EE6D3C7D9605BC9AF1987905)
Complete name                            : D:\Торенты\L0g0vo.Zver1ya.2013.D.BDRip.1080p.mkv
Format                                   : Matroska
Format version                           : Version 2
File size                                : 7.65 GiB
Duration                                 : 1h 25mn
Overall bit rate mode                    : Variable
Overall bit rate                         : 12.8 Mbps
Movie name                               : Haunt.2013.720p.Rustorrents.org.[kolbas]
Encoded date                             : UTC 2015-01-26 04:58:17
Writing application                      : mkvmerge v7.5.0 ('Glass Culture') 64bit built on Jan  4 2015 16:48:44
Writing library                          : libebml v1.3.1 + libmatroska v1.4.2

Video
ID                                       : 1
Format                                   : AVC
Format/Info                              : Advanced Video Codec
Format profile                           : High@L4.0
Format settings, CABAC                   : Yes
Format settings, ReFrames                : 4 frames
Codec ID                                 : V_MPEG4/ISO/AVC
Duration                                 : 1h 25mn
Bit rate                                 : 10.6 Mbps
Nominal bit rate                         : 10 000 Kbps
Width                                    : 1 920 pixels
Height                                   : 808 pixels
Display aspect ratio                     : 2.40:1
Frame rate                               : 24.000 fps
Color space                              : YUV
Chroma subsampling                       : 4:2:0
Bit depth                                : 8 bits
Scan type                                : Progressive
Bits/(Pixel*Frame)                       : 0.284
Stream size                              : 6.33 GiB (83%)
Title                                    : Haunt.2013.1080p.Uniongang.tv.[kolbas]
Writing library                          : x264 core 130 r2273 b3065e6
Encoding settings                        : cabac=1 / ref=3 / deblock=1:0:0 / analyse=0x3:0x113 / me=hex / subme=7 / psy=1 / psy_rd=1.00:0.00 / mixed_ref=1 / me_range=16 / chroma_me=1 / trellis=1 / 8x8dct=1 / cqm=0 / deadzone=21,11 / fast_pskip=1 / chroma_qp_offset=-2 / threads=12 / lookahead_threads=2 / sliced_threads=0 / nr=0 / decimate=1 / interlaced=0 / bluray_compat=0 / constrained_intra=0 / bframes=3 / b_pyramid=2 / b_adapt=1 / b_bias=0 / direct=1 / weightb=1 / open_gop=0 / weightp=2 / keyint=240 / keyint_min=24 / scenecut=40 / intra_refresh=0 / rc_lookahead=40 / rc=abr / mbtree=1 / bitrate=10000 / ratetol=1.0 / qcomp=0.60 / qpmin=0 / qpmax=69 / qpstep=4 / vbv_maxrate=25000 / vbv_bufsize=31250 / nal_hrd=none / ip_ratio=1.40 / aq=1:1.00
Language                                 : English
Default                                  : Yes
Forced                                   : No
Color primaries                          : BT.709-5, BT.1361, IEC 61966-2-4, SMPTE RP177
Transfer characteristics                 : BT.709-5, BT.1361
Matrix coefficients                      : BT.709-5, BT.1361, IEC 61966-2-4 709, SMPTE RP177

Audio #1
ID                                       : 2
Format                                   : AC-3
Format/Info                              : Audio Coding 3
Mode extension                           : CM (complete main)
Codec ID                                 : A_AC3
Duration                                 : 1h 25mn
Bit rate mode                            : Constant
Bit rate                                 : 384 Kbps
Channel(s)                               : 6 channels
Channel positions                        : Front: L C R, Side: L R, LFE
Sampling rate                            : 48.0 KHz
Bit depth                                : 16 bits
Compression mode                         : Lossy
Stream size                              : 235 MiB (3%)
Language                                 : Russian
Default                                  : Yes
Forced                                   : No

Audio #2
ID                                       : 3
Format                                   : DTS
Format/Info                              : Digital Theater Systems
Format profile                           : MA / Core
Codec ID                                 : A_DTS
Duration                                 : 1h 25mn
Bit rate mode                            : Variable
Bit rate                                 : 1 561 Kbps / 1 510 Kbps
Channel(s)                               : 6 channels
Channel positions                        : Front: L C R, Side: L R, LFE
Sampling rate                            : 48.0 KHz
Bit depth                                : 24 bits
Compression mode                         : Lossless / Lossy
Title                                    : Haunt.2013.1080p.Uniongang.tv.[kolbas]
Language                                 : English
Default                                  : No
Forced                                   : No

Menu
00:00:00.000                             : en:Chapter 1
00:09:11.375                             : en:Chapter 2
00:19:43.666                             : en:Chapter 3
00:32:18.666                             : en:Chapter 4
00:42:30.625                             : en:Chapter 5
00:50:27.666                             : en:Chapter 6
01:03:21.916                             : en:Chapter 7
01:12:25.291                             : en:Chapter 8
01:21:19.916                             : en:Chapter 9

pb.wtf



Скачать Логово зверя через торрент http://i58.fastpic.ru/big/2015/0126/2c/bb152100ac90fa6716b33632e285962c.jpg Скачать фильм Логово зверя через торрент бесплантно в хорошем качестве Описание: Семья 18-ти летнего Эвана переезжает в новый дом, прошлые владельцы которого погибли при странных обстоятельствах. Единственная ... 9.2 10 12
Info! Золотая раздача, скачанное не засчитывается.
Торрент: Зарегистрирован [2015-01-26 14:27] · скачан: 165 раз
Статус: √ проверено
Размер: 7.65 GB
Как cкачать? Как скачать Логово зверя через торрент | qTorrent

28-11-2019 20:33  

Отключить всю рекламу на сайте

    Дорогой пользователь! Огромная просьба, поблагодарите релизера, оцените раздачу и оставьте свои комментарий, если Вы скачали Логово зверя через торрент бесплатно! Внесите свою лепту в развитие PiratBit!
    Комментировать посты могут только пользователи прошедшие не сложную регистрацию
    Показать сообщения:    

    Логово зверя через торрент
    Скачать бесплатно Логово зверя
    Логово зверя скачать торрент
    Логово зверя смотреть онлайн
    Cкачать фильм Логово зверя бесплатно
    Логово зверя скачать торрент в хорошем качестве
    Логово зверя смотреть онлайн бесплатно в хорошем качестве


    Вы не можете начинать темы
    Вы не можете отвечать на сообщения
    Вы не можете редактировать свои сообщения
    Вы не можете удалять свои сообщения
    Вы не можете голосовать в опросах
    Вы не можете прикреплять файлы к сообщениям
    Вы можете скачивать файлы