Ссылка на приватное зеркало нашего сайта всего за 1$. Внимание количество ограничено!!!

2 сезон

iTunes

1 сезон

1

iTunes

iTunes

iTunes

1 сезон

RePack

30

ИГРА 18+

pack

ВАЖНО

!!Акция!!

Alien_RageХит недели

RePack

MK11
pack

Забери бонус

RePack

jed

!!Акция!!

Alien_Rage

RePack

fifa19

RePack

Assassins Creed: Odyssey

RePack

NEED FOR SPEED™ PAYBACK

4 сезон

9 сезон

Бесстыжие 9 сезон

Все сериалы

все сериалы на PB.wtf

RePack

FAR CRY 5
  

Война Риджа Z / Ridge War Z (Алек Джирхарт ) [2013, триллер, военный, DVDRip, Любительский (одноголосый) [den904] pb.wtf

Война Риджа Z через торрент pb.wtf

Размер: 1.46 GB | Добавлен: 5 лет 8 мес. назад | Торрент скачан:283 раза
Скачать  

26-01-2015 15:30 Война Риджа Z Скачать торрент  

Война Риджа Z / Ridge War Z

Год выпуска: 2013
Страна: США
Жанр: триллер, военный
Продолжительность: 01:29:31
Перевод: Любительский (одноголосый) [den904]- перевод на русский язык [Северный]
Режиссер: Алек Джирхарт
В ролях: Tyler Allen (Lt Gearhart, слухи), Алек Джирхарт (PFC Blair, слухи), Kyle Gordon (играет самого себя, слухи), Eoin Hartel (Main Zombie, слухи), Andrew Jackson (Zombie, слухи), Will Le Fevre (Specialist Perez, слухи), Dominique Marsell (Pvt. Carter), Travis O'Leary (играет самого себя, слухи), Dane Oleary (Samuel T. Briggs, слухи), Мануэль Эдуардо Рамирес (Eduardo Fonseca, слухи)
Описание:
Три года прошло с тех пор, как человечество подавило зомби-апокалипсис, но ветераны войны не в состоянии забыть ту боль. Трое из них расскажут свои истории автору, который намерен написать книгу для Америки, чтобы та лучше поняла жертву, принесенную армией во благо народа. Это история ужаса, чести и жертвенности.
Рейтинг:

Качество: DVDRip
Формат: AVI
Видео кодек: XviD
Аудио кодек:AC3
Видео: XviD, 720x400 (16:9), 1936 kbps, 23,976 fps, 0,268 bpp
Аудио №1: AC3 / 2.0 / 48 kHz / 192 kbps / RUS
Аудио №2: AC3 / 2.0 / 48 kHz / 192 kbps /ENG

Код:

General
Complete name                            : D:\Торенты\Ridge.War.Z.2013.DVDRip.CINEMANIA.avi
Format                                   : AVI
Format/Info                              : Audio Video Interleave
File size                                : 1.46 GiB
Duration                                 : 1h 29mn
Overall bit rate                         : 2 336 Kbps
Writing application                      : VirtualDubMod 1.5.10.2 (build 2542/release)
Writing library                          : VirtualDubMod build 2542/release

Video
ID                                       : 0
Format                                   : MPEG-4 Visual
Format profile                           : Advanced Simple@L5
Format settings, BVOP                    : 2
Format settings, QPel                    : No
Format settings, GMC                     : No warppoints
Format settings, Matrix                  : Default (MPEG)
Codec ID                                 : XVID
Codec ID/Hint                            : XviD
Duration                                 : 1h 29mn
Bit rate                                 : 1936 Kbps
Width                                    : 720 pixels
Height                                   : 400 pixels
Display aspect ratio                     : 16:9
Frame rate                               : 23.976 fps
Color space                              : YUV
Chroma subsampling                       : 4:2:0
Bit depth                                : 8 bits
Scan type                                : Progressive
Compression mode                         : Lossy
Bits/(Pixel*Frame)                       : 0.268
Stream size                              : 1.16 GiB (79%)
Writing library                          : XviD 1.2.1 (UTC 2008-12-04)

Audio #1
ID                                       : 1
Format                                   : AC-3
Format/Info                              : Audio Coding 3
Mode extension                           : CM (complete main)
Codec ID                                 : 2000
Duration                                 : 1h 29mn
Bit rate mode                            : Constant
Bit rate                                 : 192 Kbps
Channel(s)                               : 2 channels
Channel positions                        : Front: L R
Sampling rate                            : 48.0 KHz
Bit depth                                : 16 bits
Compression mode                         : Lossy
Stream size                              : 123 MiB (8%)
Alignment                                : Split accross interleaves

Audio #2
ID                                       : 2
Format                                   : AC-3
Format/Info                              : Audio Coding 3
Mode extension                           : CM (complete main)
Codec ID                                 : 2000
Duration                                 : 1h 29mn
Bit rate mode                            : Constant
Bit rate                                 : 192 Kbps
Channel(s)                               : 2 channels
Channel positions                        : Front: L R
Sampling rate                            : 48.0 KHz
Bit depth                                : 16 bits
Compression mode                         : Lossy
Stream size                              : 123 MiB (8%)
Alignment                                : Split accross interleaves

pb.wtf



Скачать Война Риджа Z через торрент http://i67.fastpic.ru/big/2015/0126/28/6c8a0e61b3af4c96be86fb3e5bae9728.jpg Скачать фильм Война Риджа Z через торрент бесплантно в хорошем качестве Описание: Три года прошло с тех пор, как человечество подавило зомби-апокалипсис, но ветераны войны не в состоянии забыть ту боль. Трое из ... 8.5 10 6
Торрент: Зарегистрирован [2015-01-26 15:30] · скачан: 283 раз
Статус: √ проверено
Размер: 1.46 GB
Как cкачать? Как скачать Война Риджа Z через торрент | qTorrent

28-11-2019 20:33  

Отключить всю рекламу на сайте

    Дорогой пользователь! Огромная просьба, поблагодарите релизера, оцените раздачу и оставьте свои комментарий, если Вы скачали Война Риджа Z через торрент бесплатно! Внесите свою лепту в развитие PiratBit!
    Комментировать посты могут только пользователи прошедшие не сложную регистрацию
    Показать сообщения:    

    Война Риджа Z через торрент
    Скачать бесплатно Война Риджа Z
    Война Риджа Z скачать торрент
    Война Риджа Z смотреть онлайн
    Cкачать фильм Война Риджа Z бесплатно
    Война Риджа Z скачать торрент в хорошем качестве
    Война Риджа Z смотреть онлайн бесплатно в хорошем качестве


    Вы не можете начинать темы
    Вы не можете отвечать на сообщения
    Вы не можете редактировать свои сообщения
    Вы не можете удалять свои сообщения
    Вы не можете голосовать в опросах
    Вы не можете прикреплять файлы к сообщениям
    Вы можете скачивать файлы