Ссылка на приватное зеркало нашего сайта всего за 1$. Внимание количество ограничено!!!

2 сезон

iTunes

1 сезон

1

iTunes

iTunes

iTunes

1 сезон

RePack

30

ИГРА 18+

pack

ВАЖНО

!!Акция!!

Alien_RageХит недели

RePack

MK11
pack

Забери бонус

RePack

jed

!!Акция!!

Alien_Rage

RePack

fifa19

RePack

Assassins Creed: Odyssey

RePack

NEED FOR SPEED™ PAYBACK

4 сезон

9 сезон

Бесстыжие 9 сезон

Все сериалы

все сериалы на PB.wtf

RePack

FAR CRY 5
  

Любовь моей жизни / Love of my Life (Майкл Бадд ) [2013, ужасы, триллер, HDRip, Любительский (двухголосый) [den904, DeadSno] pb.wtf

Любовь моей жизни через торрент pb.wtf

Размер: 1.36 GB | Добавлен: 5 лет 8 мес. назад | Торрент скачан:89 раз
Скачать  

26-01-2015 15:40 Любовь моей жизни Скачать торрент  

Любовь моей жизни / Love of my Life

Год выпуска: 2013
Страна: Австралия
Жанр: ужасы, триллер
Продолжительность: 01:35:45
Перевод: Любительский (двухголосый) [den904, DeadSno]
Режиссер: Майкл Бадд
В ролях: Питер О’Брайэн (Thomas), Бель Делиа (Nicole), Майкл Бадд (Reggie), Matt James (Matt), Даэрмид Хайденрик (Julius), Isaro Kayitesi (Keira), Аманда Джермин (Anna (scenes deleted)), Рипли Худ (Virgil), Tom Pelik (James (scenes deleted)), George Fayad (Judge), Kathryn Wenborn (Unhappy Girl), Джейхун Догру (Corner Man)
Описание:
Заснув в своей квартире, Мэтт открывает глаза в заброшенной больнице, привязанный к операционному столу. За пять дней он должен попытаться излечиться от любви, в чем ему будет помогать добрый доктор, самый лучший специалист по запущенным случаям. Сможет ли Мэтт сохранить чувства в адских муках и не отказаться от любимой?
Рейтинг:

Качество: HDRip
Формат: AVI
Видео кодек: XviD
Аудио кодек:AC3
Видео: XviD, 720x400 (16:9),1839 kbps, 23,976 fps, 0,255 bpp
Аудио: AC3 / 2.0 / 48 kHz / 192 kbps / 16 bit

Код:

General
Complete name                            : D:\Торенты\Lubovj.Moey.Zhizni.2013.HDRip.avi
Format                                   : AVI
Format/Info                              : Audio Video Interleave
File size                                : 1.36 GiB
Duration                                 : 1h 35mn
Overall bit rate                         : 2 041 Kbps
Movie name                               : Love.of.my.Life.2013.HDRip.uniongang.tv
Director                                 : 4ELLENGER
Writing application                      : VirtualDubMod 1.5.10.3 | www.virtualdub-fr.org || (build 2550/release)
Copyright                                : uniongang.tv

Video
ID                                       : 0
Format                                   : MPEG-4 Visual
Format profile                           : Advanced Simple@L5
Format settings, BVOP                    : 4
Format settings, QPel                    : No
Format settings, GMC                     : No warppoints
Format settings, Matrix                  : Custom
Codec ID                                 : XVID
Codec ID/Hint                            : XviD
Duration                                 : 1h 35mn
Bit rate                                 : 1839 Kbps
Width                                    : 720 pixels
Height                                   : 400 pixels
Display aspect ratio                     : 16:9
Frame rate                               : 23.976 fps
Color space                              : YUV
Chroma subsampling                       : 4:2:0
Bit depth                                : 8 bits
Scan type                                : Progressive
Compression mode                         : Lossy
Bits/(Pixel*Frame)                       : 0.255
Stream size                              : 1.18 GiB (86%)
Writing library                          : XviD 1.2.1 (UTC 2008-12-04)

Audio
ID                                       : 1
Format                                   : AC-3
Format/Info                              : Audio Coding 3
Mode extension                           : CM (complete main)
Codec ID                                 : 2000
Duration                                 : 1h 35mn
Bit rate mode                            : Constant
Bit rate                                 : 192 Kbps
Channel(s)                               : 2 channels
Channel positions                        : Front: L R
Sampling rate                            : 48.0 KHz
Bit depth                                : 16 bits
Compression mode                         : Lossy
Stream size                              : 131 MiB (9%)
Alignment                                : Split accross interleaves

pb.wtf



Скачать Любовь моей жизни через торрент http://i59.fastpic.ru/big/2015/0126/bd/cc73f2a5edad1452e3268ab5ec316abd.jpg Скачать фильм Любовь моей жизни через торрент бесплантно в хорошем качестве Описание: Заснув в своей квартире, Мэтт открывает глаза в заброшенной больнице, привязанный к операционному столу. За пять дней он должен ... 10 10 2
Торрент: Зарегистрирован [2015-01-26 15:40] · скачан: 89 раз
Статус: T временная
Размер: 1.36 GB
Как cкачать? Как скачать Любовь моей жизни через торрент | qTorrent

% Раздел Тема Автор DL S | L
T Фильмы [HD 720p, 1080p] (Звук Cam, VO, DVO) [ 4.45 GB ] Любовь моей жизни / Love of my Life [2013 BDRip 1080p Любительский [den904 DeadSno] Ворон Скачать
1 | 0
T Фильмы 2013 (Звук TS, Cam, VO, DVO) [ 1.16 GB ] Любовь моей жизни / Love of my Life [2013 Австралия DVDRip Любительский GEKADOL Скачать
1 | 0

28-11-2019 20:33  

Отключить всю рекламу на сайте

    Дорогой пользователь! Огромная просьба, поблагодарите релизера, оцените раздачу и оставьте свои комментарий, если Вы скачали Любовь моей жизни через торрент бесплатно! Внесите свою лепту в развитие PiratBit!
    Комментировать посты могут только пользователи прошедшие не сложную регистрацию
    Показать сообщения:    

    Любовь моей жизни через торрент
    Скачать бесплатно Любовь моей жизни
    Любовь моей жизни скачать торрент
    Любовь моей жизни смотреть онлайн
    Cкачать фильм Любовь моей жизни бесплатно
    Любовь моей жизни скачать торрент в хорошем качестве
    Любовь моей жизни смотреть онлайн бесплатно в хорошем качестве


    Вы не можете начинать темы
    Вы не можете отвечать на сообщения
    Вы не можете редактировать свои сообщения
    Вы не можете удалять свои сообщения
    Вы не можете голосовать в опросах
    Вы не можете прикреплять файлы к сообщениям
    Вы можете скачивать файлы