новый адрес
Ссылка на приватное зеркало всего за 1$. Внимание количество ограничено!!!

iTunes

1+1

iTunes

мы

WEB-DL

1

iTunes

Чернобыль

iTunes

Ральф против интернета

Лицензия

ПШазам

Лицензия

Оно 2

Лицензия

30
pack

Вам бонус

ВАЖНО

!!Акция!!

Alien_RageХит недели

RePack

Resident Evil 21

ИГРА 18+

pack

RePack

jed

!!Акция!!

Alien_Rage

RePack

fifa19

RePack

Assassins Creed: Odyssey

RePack

NEED FOR SPEED™ PAYBACK

3 сезон

9 сезон

Бесстыжие 9 сезон

Все сериалы

все сериалы на PB.wtf

RePack

FAR CRY 5
Ребята, катастрофически не хватает 1900р. для оплаты серверов за Октябрь (всвязи с блокировками трафик упал в 3 раза), 1-2р., выручайте.
  

Богдан Хмельницкий ( Игорь Савченко) [1941, драма, DVDRip ] pb.wtf

Богдан Хмельницкий через торрент pb.wtf

Размер: 1.45 GB | Добавлен: 4 года 10 мес. назад | Торрент скачан:81 раз
Скачать  

26-01-2015 15:53 Богдан Хмельницкий Скачать торрент  

Страна: СССР

Производство: Киевская киностудия

Жанр: драма

Год выпуска: 1941

Продолжительность: 1:48:15

Перевод: Не требуется

Cубтитры: нет

Оригинальная аудиодорожка: русский

Режиссер: Игорь Савченко

В ролях:

Николай Мордвинов, Галина (Гарэн) Жуковская, Никита Ильченко, Борис Безгин, Андрей Иванченко, Виталий Полицеймако, Михаил Жаров, Антон Дунайский, Борис Андреев, Ростислав Ивицкий, Дмитрий Капка, Палладий Белоконь, Павел Пасека, Александр Хвыля, Михаил Высоцкий, Эмма Цесарская, Дмитрий Милютенко, Ганс Клеринг, Василий Зайчиков, Касим Мухутдинов, Генрих Грайф, Александр Давидсон, Самуил Дитлович, С. Самульчик, Б. Свешников, Василий Дашенко, Михаил Белоусов, Павел Киянский, Эмилия Мильтон, Степан Жаворонок...

Описание:

1648 год. Украина под гнетом Речи Посполитой. Шляхта бесчинствует, сжигая станицу за станицей. Гетман войска запорожского Богдан Хмельницкий собирает на сечи армию защитников отечества...









Источник: DVD5 R5

Качество видео: DVDRip

Формат: AVI
Видео кодек: XviD
Аудио кодек: AC3

Видео: 688x512 (4:3), 25 fps, XviD ~ 1721 kbps avg, 0.195 bit/pixel

Аудио: 48 kHz, Dolby Digital AC3 2.0, 192 kbps

Раздача от:
Общее

Полное имя : Bogdan.Hmelnickiy.1941.DVDRip_[New-team]_by_AVP_Studio.avi

Формат : AVI

Формат/Информация : Audio Video Interleave

Размер файла : 1,45 Гбайт

Продолжительность : 1 ч. 48 м.

Общий поток : 1923 Кбит/сек

Программа кодирования : VirtualDubModRus 1.5.10.2 (build 2542/release)

Библиотека кодирования : VirtualDubMod build 2542/release

Видео

Идентификатор : 0

Формат : MPEG-4 Visual

Профиль формата : Advanced Simple@L5

Параметр BVOP формата : 1

Параметр QPel формата : Нет

Параметр GMC формата : Без точки перехода

Параметр матрицы формата : Выборочная

Идентификатор кодека : XVID

Идентификатор кодека/Подсказка : XviD

Продолжительность : 1 ч. 48 м.

Битрейт : 1721 Кбит/сек

Ширина : 688 пикселей

Высота : 512 пикселей

Соотношение сторон : 4:3

Частота кадров : 25,000 кадров/сек

Цветовое пространство : YUV

Субдискретизация насыщенности : 4:2:0

Битовая глубина : 8 бит

Тип развёртки : Прогрессивная

Метод сжатия : С потерями

Бит/(Пиксели*Кадры) : 0.195

Размер потока : 1,30 Гбайт (90%)

Библиотека кодирования : XviD 73

Аудио

Идентификатор : 1

Формат : AC-3

Формат/Информация : Audio Coding 3

Расширение режима : CM (complete main)

Параметр Endianness формата : Big

Идентификатор кодека : 2000

Продолжительность : 1 ч. 48 м.

Вид битрейта : Постоянный

Битрейт : 192 Кбит/сек

Каналы : 2 канала

Расположение каналов : Front: L R

Частота : 48,0 КГц

Битовая глубина : 16 бит

Метод сжатия : С потерями

Размер потока : 149 Мбайт (10%)

Выравнивание : Разделение по промежуткам

Продолжительность промежутка : 40 мс. (1,00 видеокадр)

Время предзагрузки промежутка : 500 мс
pb.wtf



Скачать Богдан Хмельницкий через торрент http://s017.radikal.ru/i416/1501/17/8be51d41e2fe.png Скачать фильм Богдан Хмельницкий через торрент бесплантно в хорошем качестве Описание:1648 год. Украина под гнетом Речи Посполитой. Шляхта бесчинствует, сжигая станицу за станицей. Гетман войска запорожского Богдан ... 10 10 5
Торрент: Зарегистрирован [2015-01-26 15:53] · скачан: 81 раз
Статус: √ проверено
Размер: 1.45 GB
Как cкачать? Как скачать Богдан Хмельницкий через торрент | qTorrent

28-11-2019 20:33  

Отключить всю рекламу на сайте

    Дорогой пользователь! Огромная просьба, поблагодарите релизера, оцените раздачу и оставьте свои комментарий, если Вы скачали Богдан Хмельницкий через торрент бесплатно! Внесите свою лепту в развитие PiratBit!
    Комментировать посты могут только пользователи прошедшие не сложную регистрацию
    Показать сообщения:    

    Богдан Хмельницкий через торрент
    Скачать бесплатно Богдан Хмельницкий
    Богдан Хмельницкий скачать торрент
    Богдан Хмельницкий смотреть онлайн
    Cкачать фильм Богдан Хмельницкий бесплатно
    Богдан Хмельницкий скачать торрент в хорошем качестве
    Богдан Хмельницкий смотреть онлайн бесплатно в хорошем качестве


    Вы не можете начинать темы
    Вы не можете отвечать на сообщения
    Вы не можете редактировать свои сообщения
    Вы не можете удалять свои сообщения
    Вы не можете голосовать в опросах
    Вы не можете прикреплять файлы к сообщениям
    Вы можете скачивать файлы