2 сезон

iTunes

MVO

1

2 сезон

iTunes

iTunes

1 сезон

RePack

30

Новинка

ВАЖНО

ИГРА 18+

pack

RePack

MK11
pack

Легкие деньги

RePack

jed

RePack

fifa19

RePack

RDR2

RePack

NEED FOR SPEED™ PAYBACK

4 сезон

9 сезон

Бесстыжие 9 сезон

Все сериалы

все сериалы на PB.wtf

RePack

FAR CRY 5

Anonymous, доброй ночи, мы не успеваем собрать деньги на оплату серверов за декабрь и январь, помогите нам пожалуйста в это трудное время. В качестве благодарности мы отключим Вам всю рекламу на сайте (укажите свой ник в строку Ваше имя)!

×
  
Magnet ссылка

Скачки / Turf (Фабьен Онтеньенте ) [2013, комедия, IPTVRip, Профессиональный (двухголосый) pb.wtf

Скачки через торрент pb.wtf

Размер: 1.45 GB | Добавлен: 5 лет 11 мес. назад | Торрент скачан:349 раз
Скачать  

26-01-2015 15:56 Скачки Скачать торрент  

Скачки / Turf

Год выпуска: 2013
Страна: Франция
Жанр: комедия
Продолжительность: 01:30:35
Перевод: Профессиональный (двухголосый)“Эй Би Видео” (Озвучен: Кинокомпанией “Эй Би Видео” по заказу 1-го канала)
Режиссер: Фабьен Онтеньенте
В ролях: Ален Шаба (Le Grec), Эдуард Баэр (Freddy), Филипп Дюкен (Fifi), Люсьен Жан-Батист (Fortuné), Ваина Джоканте (Banette), Серхи Лопес (M. Delgado), Жерар Депардье (M. Paul), Элена Ногуэрра (Christine), Нозха Кхуадра (Monique), Аббес Захмани (Maurice), Марта Вильялонга (Mme Garcia), Шарль Жерар (Casquette)
Описание:
История четырех французов, четырех заядлых игроков на тотализаторе на скачках. Приятели немного подустали от того, что постоянно теряют на ставках даже то немногое, что у них есть, и решили завязать с игрой на деньги. Но однажды судьба дарит им встречу с завсегдатаем скачек месье Полем. Этот джентльмен предлагает им купить рысака-фаворита по кличке Торпеда. Друзья, поверившие россказням нового знакомого, соглашаются. С этого момента их жизни превращаются в невероятный калейдоскоп лиц и событий.
Рейтинг:

Качество: IPTVRip
Формат: AVI
Видео кодек: XviD
Аудио кодек:AC3
Видео: XviD, 720x400 (16:9), 2095 kbps, 25 fps, 0,000 bpp
Аудио: AC3 / 2.0 / 48 kHz / 192 kbps /

Код:

General
Complete name                            : D:\Торенты\Turf (2013) IPTVRip.avi
Format                                   : AVI
Format/Info                              : Audio Video Interleave
Format profile                           : OpenDML
Format settings                          : rec
File size                                : 1.45 GiB
Duration                                 : 1h 30mn
Overall bit rate                         : 2 292 Kbps
Writing application                      : AVI-Mux GUI 1.17.8.3, Feb 16 201019:42:50

Video
ID                                       : 0
Format                                   : MPEG-4 Visual
Codec ID                                 : XVID
Codec ID/Hint                            : XviD
Duration                                 : 1h 30mn
Source duration                          : 4s 400ms
Bit rate                                 : 2095 bps
Width                                    : 720 pixels
Height                                   : 400 pixels
Display aspect ratio                     : 16:9
Frame rate                               : 25.000 fps
Color space                              : YUV
Chroma subsampling                       : 4:2:0
Compression mode                         : Lossy
Bits/(Pixel*Frame)                       : 0.000
Stream size                              : 942 KiB (0%)

Audio
ID                                       : 1
Format                                   : AC-3
Format/Info                              : Audio Coding 3
Codec ID                                 : 2000
Duration                                 : 1h 30mn
Source duration                          : 4s 608ms
Bit rate mode                            : Constant
Bit rate                                 : 192 Kbps
Channel(s)                               : 2 channels
Sampling rate                            : 48.0 KHz
Compression mode                         : Lossy
Stream size                              : 108 KiB (0%)
Alignment                                : Aligned on interleaves
Interleave, duration                     : 61 ms (1.53 video frames)
Interleave, preload duration             : 192 ms
Title                                    : Turf.2013.XviD.IPTVRip

pb.wtf



Скачать Скачки через торрент http://i57.fastpic.ru/big/2015/0126/66/21cbb1581a186996a9daf620d70ec566.jpg Скачать фильм Скачки через торрент бесплантно в хорошем качестве Описание: История четырех французов, четырех заядлых игроков на тотализаторе на скачках. Приятели немного подустали от того, что постоянно ... 9.3 10 13
Торрент: Зарегистрирован [2015-01-26 15:56] · скачан: 349 раз
Статус: √ проверено
Размер: 1.45 GB
Как cкачать? Как скачать Скачки через торрент | UTorrent

% Раздел Тема Автор DL S | L
Фильмы 2013 [DVDrip, WEB-DLRip, HDrip] [ 1.45 GB ] Скачки / Turf [2013 HDRip] [MVO] + [Orig] Fre killermax2013 Скачать
1 | 0
Фильмы (WEB-DL 720p, 1080p) [ 6.61 GB ] Скачки / Turf [2013 HDTV 1080i Ворон Скачать
1 | 0

28-11-2019 20:33  

Отключить всю рекламу на сайте

    Дорогой пользователь! Огромная просьба, поблагодарите релизера, оцените раздачу и оставьте свои комментарий, если Вы скачали Скачки через торрент бесплатно! Внесите свою лепту в развитие PiratBit!
    Комментировать посты могут только пользователи прошедшие не сложную регистрацию
    Показать сообщения:    

    Скачки через торрент
    Скачать бесплатно Скачки
    Скачки скачать торрент
    Скачки смотреть онлайн
    Cкачать фильм Скачки бесплатно
    Скачки скачать торрент в хорошем качестве
    Скачки смотреть онлайн бесплатно в хорошем качестве


    Вы не можете начинать темы
    Вы не можете отвечать на сообщения
    Вы не можете редактировать свои сообщения
    Вы не можете удалять свои сообщения
    Вы не можете голосовать в опросах
    Вы не можете прикреплять файлы к сообщениям
    Вы можете скачивать файлы