Ссылка на приватное зеркало всего за 1$. Внимание количество ограничено!!!

iTunes

iTunes

iTunes

1

iTunes

iTunes

iTunes

iTunes

iTunes

30
pack

$ от Little Big

ВАЖНО

!!Акция!!

Alien_RageХит недели

RePack

Resident Evil 21

ИГРА 18+

pack

RePack

jed

!!Акция!!

Alien_Rage

RePack

fifa19

RePack

Assassins Creed: Odyssey

RePack

NEED FOR SPEED™ PAYBACK

4 сезон

9 сезон

Бесстыжие 9 сезон

Все сериалы

все сериалы на PB.wtf

RePack

FAR CRY 5
  

Однажды в Нью-Йорке / Song One (Кейт Баркер ) [2014, драма, WEB-DL 720p, Любительский (одноголосый) [Pashaup] pb.wtf

Однажды в Нью-Йорке через торрент pb.wtf

Размер: 3.01 GB | Добавлен: 5 лет 5 мес. назад | Торрент скачан:16 раз
Скачать  

26-01-2015 19:22 Однажды в Нью-Йорке Скачать торрент  

Однажды в Нью-Йорке / Song One

Год выпуска: 2014
Страна: США
Жанр: драма
Продолжительность: 01:28:08
Перевод: [Павел Морозов aka PashaUp] - по переводу [Антонио]
Субтитры: русские (Антонио), английские,
Режиссер: Кейт Баркер
В ролях: Энн Хэтэуэй (Franny), Джонни Флинн (James Forester), Мэри Стинберген, Бен Розенфилд (Henry), Гидеон Глик (Everett), Ли Джан Ли (James Forester's Journalist), Стефано Вильябона (Rock Concert Goer), Шоун Парсонс (Roadie), Аль Томпсон (Andy), Кристал Лоннеберг (James' Friend), Катрина Префонтейн (Hippie Woman), Джессамин Келли (Tess)
Описание:
Девушка-археолог возвращается домой с раскопок, чтобы увидеться со своим братом, получившим травму. Вскоре она завязывает отношения с его любимым музыкантом.
Рейтинг:

MPAA: PG-13 - Детям до 13 лет просмотр не желателен
Качество: WEB-DL 720p
Формат: MKV
Видео кодек: AVC
Аудио кодек:AC3
Видео: AVC, 1280x688 (1.860), 3957 kbps, 23,976 fps, 0,187 bpp
Аудио №1: русский / AC3 / 5.1 / 48 kHz / 448 kbps / 16 bit ||
Аудио №2: английский / AC3 / 5.1 / 48 kHz / 384 kbps / 16 bit
Навигация по главам: есть

Код:

General
Unique ID                                : 198785240711776884423857080374947602276 (0x958CA50EEB64A888A0947D4C1371DF64)
Complete name                            : D:\Торенты\Song.One.2014.WEB-DL.720p.CINEMANIA.mkv
Format                                   : Matroska
Format version                           : Version 4 / Version 2
File size                                : 3.01 GiB
Duration                                 : 1h 28mn
Overall bit rate                         : 4 887 Kbps
Movie name                               : Release Group CINEMANIA
Encoded date                             : UTC 2015-01-26 13:29:14
Writing application                      : mkvmerge v7.5.0 ('Glass Culture') 64bit built on Jan  4 2015 16:48:44
Writing library                          : libebml v1.3.1 + libmatroska v1.4.2

Video
ID                                       : 1
Format                                   : AVC
Format/Info                              : Advanced Video Codec
Format profile                           : High@L3.1
Format settings, CABAC                   : No
Format settings, ReFrames                : 2 frames
Codec ID                                 : V_MPEG4/ISO/AVC
Duration                                 : 1h 28mn
Bit rate                                 : 3 958 Kbps
Width                                    : 1 280 pixels
Height                                   : 688 pixels
Display aspect ratio                     : 1.860
Frame rate                               : 23.976 fps
Color space                              : YUV
Chroma subsampling                       : 4:2:0
Bit depth                                : 8 bits
Scan type                                : Progressive
Bits/(Pixel*Frame)                       : 0.187
Stream size                              : 2.44 GiB (81%)
Title                                    : Release Group CINEMANIA
Language                                 : English
Default                                  : Yes
Forced                                   : No
Color primaries                          : BT.709-5, BT.1361, IEC 61966-2-4, SMPTE RP177
Transfer characteristics                 : BT.709-5, BT.1361
Matrix coefficients                      : BT.709-5, BT.1361, IEC 61966-2-4 709, SMPTE RP177

Audio #1
ID                                       : 2
Format                                   : AC-3
Format/Info                              : Audio Coding 3
Mode extension                           : CM (complete main)
Codec ID                                 : A_AC3
Duration                                 : 1h 28mn
Bit rate mode                            : Constant
Bit rate                                 : 448 Kbps
Channel(s)                               : 6 channels
Channel positions                        : Front: L C R, Side: L R, LFE
Sampling rate                            : 48.0 KHz
Bit depth                                : 16 bits
Compression mode                         : Lossy
Stream size                              : 282 MiB (9%)
Title                                    : Павел Морозов
Language                                 : Russian
Default                                  : Yes
Forced                                   : Yes

Audio #2
ID                                       : 3
Format                                   : AC-3
Format/Info                              : Audio Coding 3
Mode extension                           : CM (complete main)
Codec ID                                 : A_AC3
Duration                                 : 1h 28mn
Bit rate mode                            : Constant
Bit rate                                 : 384 Kbps
Channel(s)                               : 6 channels
Channel positions                        : Front: L C R, Side: L R, LFE
Sampling rate                            : 48.0 KHz
Bit depth                                : 16 bits
Compression mode                         : Lossy
Stream size                              : 242 MiB (8%)
Language                                 : English
Default                                  : No
Forced                                   : No

Text #1
ID                                       : 4
Format                                   : UTF-8
Codec ID                                 : S_TEXT/UTF8
Codec ID/Info                            : UTF-8 Plain Text
Language                                 : Russian
Default                                  : Yes
Forced                                   : Yes

Text #2
ID                                       : 5
Format                                   : UTF-8
Codec ID                                 : S_TEXT/UTF8
Codec ID/Info                            : UTF-8 Plain Text
Title                                    : Антонио
Language                                 : Russian
Default                                  : No
Forced                                   : No

Text #3
ID                                       : 6
Format                                   : UTF-8
Codec ID                                 : S_TEXT/UTF8
Codec ID/Info                            : UTF-8 Plain Text
Language                                 : English
Default                                  : No
Forced                                   : No

Menu
00:00:00.000                             : en:Chapter 1
00:10:00.000                             : en:Chapter 2
00:20:00.000                             : en:Chapter 3
00:30:00.000                             : en:Chapter 4
00:40:00.000                             : en:Chapter 5
00:50:00.000                             : en:Chapter 6
01:00:00.000                             : en:Chapter 7
01:10:00.000                             : en:Chapter 8
01:20:00.000                             : en:Chapter 9

pb.wtf



Скачать Однажды в Нью-Йорке через торрент http://i4.imageban.ru/out/2015/01/26/1efb0445d2f0373b7acc8118641cb1c1.jpg Скачать фильм Однажды в Нью-Йорке через торрент бесплантно в хорошем качестве Описание: Девушка-археолог возвращается домой с раскопок, чтобы увидеться со своим братом, получившим травму. Вскоре она завязывает ... 10 10 2
Торрент: Зарегистрирован [2015-01-26 19:22] · скачан: 16 раз
Статус: T временная
Размер: 3.01 GB
Как cкачать? Как скачать Однажды в Нью-Йорке через торрент | qTorrent

% Раздел Тема Автор DL S | L
Фильмы (WEB-DL 720p, 1080p) [ 3.13 GB ] Однажды в Нью-Йорке / Song One [2014 WEB-DL 720p DVO+VO] Ворон Скачать
1 | 0
T Фильмы 2014 (Звук TS, Cam, VO, DVO) [ 1.37 GB ] Первая песня / Однажды в Нью-Йорке / Song one [2014 музыкальный WEB-DLRip] Любительская одноголосая Ворон Скачать
1 | 0

28-11-2019 20:33  

Отключить всю рекламу на сайте

    Дорогой пользователь! Огромная просьба, поблагодарите релизера, оцените раздачу и оставьте свои комментарий, если Вы скачали Однажды в Нью-Йорке через торрент бесплатно! Внесите свою лепту в развитие PiratBit!
    Комментировать посты могут только пользователи прошедшие не сложную регистрацию
    Показать сообщения:    

    Однажды в Нью-Йорке через торрент
    Скачать бесплатно Однажды в Нью-Йорке
    Однажды в Нью-Йорке скачать торрент
    Однажды в Нью-Йорке смотреть онлайн
    Cкачать фильм Однажды в Нью-Йорке бесплатно
    Однажды в Нью-Йорке скачать торрент в хорошем качестве
    Однажды в Нью-Йорке смотреть онлайн бесплатно в хорошем качестве


    Вы не можете начинать темы
    Вы не можете отвечать на сообщения
    Вы не можете редактировать свои сообщения
    Вы не можете удалять свои сообщения
    Вы не можете голосовать в опросах
    Вы не можете прикреплять файлы к сообщениям
    Вы можете скачивать файлы