Ссылка на приватное зеркало нашего сайта всего за 1$. Внимание количество ограничено!!!

2 сезон

iTunes

1 сезон

1

iTunes

iTunes

iTunes

1 сезон

RePack

30

ИГРА 18+

pack

ВАЖНО

!!Акция!!

Alien_RageХит недели

RePack

MK11
pack

Забери бонус

RePack

jed

!!Акция!!

Alien_Rage

RePack

fifa19

RePack

Assassins Creed: Odyssey

RePack

NEED FOR SPEED™ PAYBACK

4 сезон

9 сезон

Бесстыжие 9 сезон

Все сериалы

все сериалы на PB.wtf

RePack

FAR CRY 5
  

История дельфина 2 / Dolphin Tale 2 (Чарльз Мартин Смит / Charles Martin Smith) [2014, драма, семейный, BDRip 1080p, Dub, Лицензия] pb.wtf

История дельфина 2 через торрент pb.wtf

Размер: 14.91 GB | Добавлен: 5 лет 8 мес. назад | Торрент скачан:34 раза
Скачать  

26-01-2015 19:55 История дельфина 2 Скачать торрент  

История дельфина 2 / Dolphin Tale 2
«В удивительной истории Уинтер появилась надежда»



Год выпуска: 2014
Страна: США
Жанр: драма, семейный
Продолжительность: 01:47:14
Перевод: Дублированный [Лицензия]
Субтитры: Русские (Форсированные, Полные)



Режиссер:
  • Чарльз Мартин Смит / Charles Martin Smith
В ролях:
  • Морган Фриман, Эшли Джадд, Гарри Конник мл., Крис Кристофферсон, Нэйтан Гэмбл, Джулия Винтер, Кози Цуельсдорфф, Остин Стоуэлл, Джулиана Харкви, Остин Хигсмит, Карлос Гомес, Том Ноуики
Описание: Прошло несколько лет после событий, описываемых в первом фильме. Суррогатная мать Уинтер, старая дельфиниха по имени Панама, скончалась. В итоге Уинтер осталась одна, а по законам Министерства сельского хозяйства США дельфинов нельзя содержать по одному. Чтобы Уинтер не перевезли в другой аквариум, команде морского госпиталя придется найти ей компаньона...



Качество: BDRip 1080p
Формат: MKV
Видео кодек: AVC
Аудио кодек: AC3 / DTS
Видео:1920x1080 (16:9), 23,976 fps, 17358 kbps, 0,349 bpp
Аудио №1: русский, AC3, 48 kHz, 5.1 ch, 640 kbps
Аудио №2: английский, DTS, 48 kHz, 5.1 ch, 1510 kbps


Код:

General
Unique ID                                : 196535122002842135057472073793683597551 (0x93DB49A4039EFC0CA673E7CBC1EC28EF)
Complete name                            : H:\История дельфина 2 (2014) BDRip 1080p.mkv
Format                                   : Matroska
Format version                           : Version 4 / Version 2
File size                                : 14.9 GiB
Duration                                 : 1h 47mn
Overall bit rate                         : 19.9 Mbps
Encoded date                             : UTC 2015-01-26 14:04:10
Writing application                      : mkvmerge v6.9.1 ('Blue Panther') 32bit built on Apr 18 2014 18:15:44
Writing library                          : libebml v1.3.0 + libmatroska v1.4.1
Attachment                               : Yes

Video
ID                                       : 1
Format                                   : AVC
Format/Info                              : Advanced Video Codec
Format profile                           : High@L4.1
Format settings, CABAC                   : Yes
Format settings, ReFrames                : 4 frames
Codec ID                                 : V_MPEG4/ISO/AVC
Duration                                 : 1h 47mn
Bit rate                                 : 17.4 Mbps
Width                                    : 1 920 pixels
Height                                   : 1 080 pixels
Display aspect ratio                     : 16:9
Frame rate                               : 23.976 fps
Color space                              : YUV
Chroma subsampling                       : 4:2:0
Bit depth                                : 8 bits
Scan type                                : Progressive
Bits/(Pixel*Frame)                       : 0.349
Stream size                              : 13.0 GiB (87%)
Writing library                          : x264 core 133 r2334 a3ac64b
Encoding settings                        : cabac=1 / ref=4 / deblock=1:-3:-3 / analyse=0x3:0x133 / me=tesa / subme=10 / psy=1 / psy_rd=0.95:0.00 / mixed_ref=1 / me_range=24 / chroma_me=1 / trellis=2 / 8x8dct=1 / cqm=0 / deadzone=21,11 / fast_pskip=0 / chroma_qp_offset=-2 / threads=12 / lookahead_threads=2 / sliced_threads=0 / nr=0 / decimate=0 / interlaced=0 / bluray_compat=0 / constrained_intra=0 / bframes=8 / b_pyramid=2 / b_adapt=2 / b_bias=0 / direct=3 / weightb=1 / open_gop=0 / weightp=2 / keyint=250 / keyint_min=23 / scenecut=40 / intra_refresh=0 / rc_lookahead=60 / rc=crf / mbtree=0 / crf=16.5 / qcomp=0.60 / qpmin=0 / qpmax=69 / qpstep=4 / vbv_maxrate=50000 / vbv_bufsize=62500 / crf_max=0.0 / nal_hrd=none / ip_ratio=1.10 / pb_ratio=1.10 / aq=1:0.70
Language                                 : English
Default                                  : Yes
Forced                                   : No
Matrix coefficients                      : BT.709-5, BT.1361, IEC 61966-2-4 709, SMPTE RP177

Audio #1
ID                                       : 2
Format                                   : AC-3
Format/Info                              : Audio Coding 3
Mode extension                           : CM (complete main)
Codec ID                                 : A_AC3
Duration                                 : 1h 47mn
Bit rate mode                            : Constant
Bit rate                                 : 640 Kbps
Channel(s)                               : 6 channels
Channel positions                        : Front: L C R, Side: L R, LFE
Sampling rate                            : 48.0 KHz
Bit depth                                : 16 bits
Compression mode                         : Lossy
Stream size                              : 491 MiB (3%)
Title                                    : Дублированный, Лицензия
Language                                 : Russian
Default                                  : Yes
Forced                                   : No

Audio #2
ID                                       : 3
Format                                   : DTS
Format/Info                              : Digital Theater Systems
Codec ID                                 : A_DTS
Duration                                 : 1h 47mn
Bit rate mode                            : Constant
Bit rate                                 : 1 510 Kbps
Channel(s)                               : 6 channels
Channel positions                        : Front: L C R, Side: L R, LFE
Sampling rate                            : 48.0 KHz
Bit depth                                : 24 bits
Compression mode                         : Lossy
Delay relative to video                  : 11ms
Stream size                              : 1.13 GiB (8%)
Title                                    : Оригинал
Language                                 : English
Default                                  : No
Forced                                   : No

Text #1
ID                                       : 4
Format                                   : UTF-8
Codec ID                                 : S_TEXT/UTF8
Codec ID/Info                            : UTF-8 Plain Text
Title                                    : Форсированные
Language                                 : Russian
Default                                  : Yes
Forced                                   : No

Text #2
ID                                       : 5
Format                                   : UTF-8
Codec ID                                 : S_TEXT/UTF8
Codec ID/Info                            : UTF-8 Plain Text
Title                                    : Полные
Language                                 : Russian
Default                                  : No
Forced                                   : No

Menu
00:00:00.000                             : en:00:00:00.000
00:10:42.058                             : en:00:10:42.058
00:20:34.859                             : en:00:20:34.859
00:30:43.967                             : en:00:30:43.967
00:41:08.966                             : en:00:41:08.966
00:50:24.438                             : en:00:50:24.438
00:59:16.428                             : en:00:59:16.428
01:11:01.424                             : en:01:11:01.424
01:19:51.745                             : en:01:19:51.745
01:31:45.083                             : en:01:31:45.083
01:36:05.259                             : en:01:36:05.259

Бюджет фильма: $36 000 000
Премьера (мир): 11 сентября 2014
Премьера (РФ): 11 сентября 2014,
«Каро-Премьер»

Релиз на Blu-Ray: 25 декабря 2014,
«CP Дистрибуция»,
...

Релиз на DVD: 25 декабря 2014,
«CP Дистрибуция»,
...
pb.wtf



Скачать История дельфина 2 через торрент http://i67.fastpic.ru/big/2015/0126/94/3b5a0e0d18dd30ef795a240c1e3d2f94.png Скачать фильм История дельфина 2 через торрент бесплантно в хорошем качестве Описание: Прошло несколько лет после событий, описываемых в первом фильме. Суррогатная мать Уинтер, старая дельфиниха по имени Панама, ... 10 10 4
Info! Золотая раздача, скачанное не засчитывается.
Торрент: Зарегистрирован [2015-01-26 19:59] · скачан: 34 раз
Статус: √ проверено
Размер: 14.91 GB
Как cкачать? Как скачать История дельфина 2 через торрент | qTorrent

% Раздел Тема Автор DL S | L
Фильмы 2014 [DVDrip, WEB-DLRip, HDrip] [ 2.91 GB ] История дельфина 2 / Dolphin Tale 2 [2014 BDRip-AVC] DUB potroks Скачать
1 | 0
Фильмы 2014 [DVDrip, WEB-DLRip, HDrip] [ 2.18 GB ] История дельфина 2 / Dolphin Tale 2 [2014 BDRip ""] coc900 Скачать
1 | 0
Фильмы [HD 720p, 1080p] (Хороший звук DUB, MVO) [ 4.93 GB ] История дельфина 2 / Dolphin Tale 2 [2014 BDRip 720p] от R.G. PiratFilms XLASER Скачать
1 | 0
Фильмы 2014 [DVDrip, WEB-DLRip, HDrip] [ 2.05 GB ] История дельфина 2 / Dolphin Tale 2 [2014 HDRip - / ] _KaisiK_ Скачать
1 | 0


Последний раз редактировалось: Seedtank (2015-01-26 22:40), всего редактировалось 1 раз

28-11-2019 20:33  

Отключить всю рекламу на сайте

26-01-2015 20:02 История дельфина 2 Скачать торрент  

Видеоряд от SbR.
Релиз подготовлен специально для piratbit.cc
Вшита обложка.
pb.wtf



    Дорогой пользователь! Огромная просьба, поблагодарите релизера, оцените раздачу и оставьте свои комментарий, если Вы скачали История дельфина 2 через торрент бесплатно! Внесите свою лепту в развитие PiratBit!
    Комментировать посты могут только пользователи прошедшие не сложную регистрацию
    Показать сообщения:    

    История дельфина 2 через торрент
    Скачать бесплатно История дельфина 2
    История дельфина 2 скачать торрент
    История дельфина 2 смотреть онлайн
    Cкачать фильм История дельфина 2 бесплатно
    История дельфина 2 скачать торрент в хорошем качестве
    История дельфина 2 смотреть онлайн бесплатно в хорошем качестве


    Вы не можете начинать темы
    Вы не можете отвечать на сообщения
    Вы не можете редактировать свои сообщения
    Вы не можете удалять свои сообщения
    Вы не можете голосовать в опросах
    Вы не можете прикреплять файлы к сообщениям
    Вы можете скачивать файлы