Ссылка на приватное зеркало нашего сайта всего за 1$. Внимание количество ограничено!!!

2 сезон

iTunes

1 сезон

1

iTunes

iTunes

iTunes

1 сезон

RePack

30

ИГРА 18+

pack

ВАЖНО

!!Акция!!

Alien_RageХит недели

RePack

MK11
pack

Забери бонус

RePack

jed

!!Акция!!

Alien_Rage

RePack

fifa19

RePack

Assassins Creed: Odyssey

RePack

NEED FOR SPEED™ PAYBACK

4 сезон

9 сезон

Бесстыжие 9 сезон

Все сериалы

все сериалы на PB.wtf

RePack

FAR CRY 5
  

Легко ли быть молодым? (1-8 серия из 8) [2015 г., Комедия, WEB-DLRip 720p] pb.wtf

Легко ли быть молодым? через торрент pb.wtf

Размер: 4.26 GB | Добавлен: 5 лет 8 мес. назад | Торрент скачан:228 раз
Скачать  

27-01-2015 05:54 Легко ли быть молодым? Скачать торрент  

Легко ли быть молодым?
Год выпуска: 2015
Страна: Россия
Жанр: Комедия
Продолжительность: ~ 00:26:00

Режиссер: Александр Наумов

В ролях: Мишель Мстоян, Яна Енжаева, Владислав Гутов, Дарья Склярова, Артём Ботов, Валерия Терехина, Александр Бостаниди, Полина Поликанова, Александра Ахромеева, Сергей Ларин (III), Артём Вялов, Андрей Крыжний, Елизавета Кононова

Описание: Легко ли быть молодым, если живешь в современном мегаполисе? Легко ли быть молодым, если влюбился в того, кто тебе не пара? Или если ты - толстая? И твой парень тебе изменяет? Легко ли быть молодым, если тебе понравилась девочка из соседнего двора, но для нее ты - лицо кавказской национальности?

Качество: WEB-DLRip 720p
Формат: MKV
Видео кодек: AVC
Аудио кодек: AC3
Видео: 1280x720 (16:9), 25.000 fps, 3 115 Kbps (0.135 bit/pixel)
Аудио#1: 48.0 KHz, 2 ch, 192 Kbps, CBR (Russian)

Добавлена 8-я серия...
Внимание! Раздача ведётся путём добавления новых серий; при каждом добавлении создаётся новый торрент. Чтобы начать докачку новой серии, пользователям необходимо сделать следующее:
(1) остановить скачивание,
(2) удалить старый торрент у себя из клиента (старые серии удалять не надо),
(3) скачать новый торрент и запустить его у себя в клиенте вместо старого, при этом указать клиенту путь в старую папку куда и должно происходить скачивание новых серий.
Ваш клиент при этом должен произвести хеширование (проверку) старой папки (если не производит сам - помогите ему сделать это), и будет докачивать только те серии которых у вас ещё нет. Старые серии при этом не удаляются, а продолжают раздаваться!
Eсли вы уже удалили старые серии, то предотвратить повторную закачку старых серий можно, отжав галочку в соответствующих местах при запуске нового торрента. По возможности, желательно не удалять старые серии как можно дольше чтобы релизёр не столько продолжал раздавать старые серии, а смог сконцентрироваться на новых.
скриншот   скриншот   скриншот   скриншот   скриншот   скриншот   скриншот  

Общее
Уникальный идентификатор : 235798834360371249097238181067011027956 (0xB165341EC6FDCCAAAA98A3FA2CEE73F4)
Полное имя : F:\Фильмы торренты\Legko.li.byt.molodym.2015.WEB-DL.(720p).MediaClub\Legko.li.byt.molodym.(01.seriya).2015.WEB-DL.(720p).MediaClub.mkv
Формат : Matroska
Версия формата : Version 2
Размер файла : 534 Мбайт
Продолжительность : 22 м.
Общий поток : 3374 Кбит/сек
Название фильма : Legko.li.byt.molodym.(01.seriya).2015.WEB-DL.(720p).MediaClub
Дата кодирования : UTC 2015-01-26 17:42:51
Программа кодирования : mkvmerge v5.8.0 ('No Sleep / Pillow') built on Sep 2 2012 15:37:04
Библиотека кодирования : libebml v1.2.3 + libmatroska v1.3.0

Видео
Идентификатор : 1
Формат : AVC
Формат/Информация : Advanced Video Codec
Профиль формата : High@L4.0
Параметр CABAC формата : Да
Параметр ReFrames формата : 8 кадров
Идентификатор кодека : V_MPEG4/ISO/AVC
Продолжительность : 22 м.
Битрейт : 3115 Кбит/сек
Ширина : 1280 пикселей
Высота : 720 пикселей
Соотношение сторон : 16:9
Режим частоты кадров : Постоянный
Частота кадров : 25,000 кадров/сек
Цветовое пространство : YUV
Субдискретизация насыщенности : 4:2:0
Битовая глубина : 8 бит
Тип развёртки : Прогрессивная
Бит/(Пиксели*Кадры) : 0.135
Размер потока : 493 Мбайт (92%)
Библиотека кодирования : x264 core 136
Настройки программы : cabac=1 / ref=8 / deblock=1:-1:-1 / analyse=0x3:0x133 / me=umh / subme=9 / psy=1 / psy_rd=1.00:0.15 / mixed_ref=1 / me_range=16 / chroma_me=1 / trellis=2 / 8x8dct=1 / cqm=0 / deadzone=21,11 / fast_pskip=1 / chroma_qp_offset=-3 / threads=18 / lookahead_threads=1 / sliced_threads=0 / nr=0 / decimate=1 / interlaced=0 / bluray_compat=0 / constrained_intra=0 / bframes=3 / b_pyramid=2 / b_adapt=2 / b_bias=0 / direct=3 / weightb=1 / open_gop=0 / weightp=2 / keyint=100 / keyint_min=10 / scenecut=40 / intra_refresh=0 / rc_lookahead=60 / rc=crf / mbtree=1 / crf=17.0 / qcomp=0.60 / qpmin=0 / qpmax=69 / qpstep=4 / vbv_maxrate=3600 / vbv_bufsize=3600 / crf_max=0.0 / nal_hrd=none / ip_ratio=1.40 / aq=1:1.00
Default : Да
Forced : Да

Аудио
Идентификатор : 2
Формат : AC-3
Формат/Информация : Audio Coding 3
Расширение режима : CM (complete main)
Параметр Endianness формата : Big
Идентификатор кодека : A_AC3
Продолжительность : 22 м.
Вид битрейта : Постоянный
Битрейт : 192 Кбит/сек
Каналы : 2 канала
Расположение каналов : Front: L R
Частота : 48,0 КГц
Битовая глубина : 16 бит
Метод сжатия : С потерями
Задержка видео : -80 мс.
Размер потока : 30,4 Мбайт (6%)
Язык : Russian
Default : Да
Forced : Да

pb.wtf



Скачать Легко ли быть молодым? через торрент http://mediaclub.tv/torrents/images/120070.jpg Скачать фильм Легко ли быть молодым? через торрент бесплантно в хорошем качестве Описание: Легко ли быть молодым, если живешь в современном мегаполисе? Легко ли быть молодым, если влюбился в того, кто тебе не пара? Или ... 8.6 10 25
Info! Золотая раздача, скачанное не засчитывается.
Торрент: Зарегистрирован [2015-02-05 20:09] · скачан: 228 раз
Статус: √ проверено
Размер: 4.26 GB
Как cкачать? Как скачать Легко ли быть молодым? через торрент | qTorrent



Последний раз редактировалось: Assasinca (2015-02-05 20:09), всего редактировалось 7 раз(а)

28-11-2019 20:33  

Отключить всю рекламу на сайте

27-01-2015 19:37 Легко ли быть молодым? Скачать торрент  

рыженькая просто секси :zay:pb.wtf



27-01-2015 20:16 Легко ли быть молодым? Скачать торрент  

Ну и хреньpb.wtf



03-02-2015 23:11 Легко ли быть молодым? Скачать торрент  

m9sо писал(а):

рыженькая просто секси :zay:

а кто из них "рыженькая"?pb.wtf



04-02-2015 04:04 Легко ли быть молодым? Скачать торрент  

не понравилсяpb.wtf



04-02-2015 17:18 Легко ли быть молодым? Скачать торрент  

полная лажаpb.wtf



03-04-2015 10:30 Легко ли быть молодым? Скачать торрент  

Спасибо, посмотрю!)pb.wtf



    Дорогой пользователь! Огромная просьба, поблагодарите релизера, оцените раздачу и оставьте свои комментарий, если Вы скачали Легко ли быть молодым? через торрент бесплатно! Внесите свою лепту в развитие PiratBit!
    Комментировать посты могут только пользователи прошедшие не сложную регистрацию
    Показать сообщения:    

    Легко ли быть молодым? через торрент
    Скачать бесплатно Легко ли быть молодым?
    Легко ли быть молодым? скачать торрент
    Легко ли быть молодым? смотреть онлайн
    Cкачать фильм Легко ли быть молодым? бесплатно
    Легко ли быть молодым? скачать торрент в хорошем качестве
    Легко ли быть молодым? смотреть онлайн бесплатно в хорошем качестве


    Вы не можете начинать темы
    Вы не можете отвечать на сообщения
    Вы не можете редактировать свои сообщения
    Вы не можете удалять свои сообщения
    Вы не можете голосовать в опросах
    Вы не можете прикреплять файлы к сообщениям
    Вы можете скачивать файлы