Anonymous, доброе утро, присоединяйтесь к нам в Telegram!, здесь всегда актуальный адрес сайта, оперативная поддержка и многое другое!

>

5.6

iTunes

7.4

iTunes

5.7

MVO

1

7.7

1 сезон

6.8

iTunes

7.3

1 сезон

13

6.7

1 сезон

8.3

RePack

30

ULTIMATE

pack

9.9

Лицензия

ВАЖНО

ИГРА 18+

pack

7.3

RePack

MK11

7.7

RePack

jed

7.8

RePack

fifa19

8.5

RePack

RDR2

RePack

NEED FOR SPEED™ PAYBACK

4 сезон

9 сезон

Бесстыжие 9 сезон

Все сериалы

все сериалы на PB.wtf

RePack

FAR CRY 5

Anonymous, доброе утро, мы катастрофически не успеваем собрать деньги на оплату серверов, помогите нам пожалуйста 5,10,15р., для нас важна любая помощь . В качестве благодарности мы отключим Вам всю рекламу на сайте (укажите свой ник в строку Ваше имя)!

×
  
Magnet ссылка

Родина (Первый сезон) / Homeland (The Complete First Season)12(12) (Майкл Куэста, Кларк Джонсон, Джеффри Начманофф) [2011 г., драма, криминал, детектив, WEB-DLRip 720p,]MVO (LostFilm) pb.wtf

Родина через торрент pb.wtf

Размер: 20.26 GB | Добавлен: 6 лет 8 мес. назад | Торрент скачан:355 раз
Смотреть онлайн Родина | Скачать    Ребята, помогите собрать деньги на оплату серверов!!!

27-01-2015 08:22 Родина Скачать торрент  

Родина (Первый сезон) / Homeland (The Complete First Season)
Год выпуска: 2011
Страна: США
Жанр: драма, криминал, детектив
Продолжительность: ~ 00:55:00
Перевод: Профессиональный многоголосый(LostFilm)

Режиссер: Майкл Куэста, Кларк Джонсон, Джеффри Начманофф




В ролях: Клэр Дэйнс, Дамиан Льюис, Морена Баккарин, Дэвид Хэрвуд, Диего Клаттенхофф, Джексон Паке, Моргон Сэйлор, Мэнди Пэтинкин, Дэвид Марсиано, Навид Негабан и др.

Описание: Аналитик ЦРУ Кэрри Мэтисон во время операции в Ираке выясняет, что американский военнопленный завербован Аль-Каедой. Вскоре после этого отряд спецназа Дельта во время зачистки обнаруживает сержанта морской пехоты Николаса Броуди, который числился пропавшим без вести с 2003-го года. Понимая, что доказать виновность Броуди будет практически невозможно, Кэрри обращается за помощью к своему наставнику Солу Беренсону. Вместе они будут вести расследование, чтобы предотвратить очередной теракт на территории США.

Качество: WEB-DLRip 720p
Формат: MKV
Видео кодек: AVC
Аудио кодек: AC3
Видео: 1280x720 (16:9), 23.976 fps, 4 041 Kbps (0.183 bit/pixel)
Аудио#1: 44.1 KHz, 2 ch, 384 Kbps, CBR (Russian)
1). Пилотная серия (Pilot)
2). Благодать (Grace)
3). С чистого листа (Clean Skin)
4). Эгоист (Semper I)
5). Слепая зона (Blind Spot)
6). Хороший солдат (The Good Soldier)
7). Выходные (The Weekend)
8). Ахиллесова пята (Achilles Heel)
9). Перекрестный огонь (Crossfire)
10). Представительный Броуди (Representative Brody)
11). Жилет (The Vest)
12). Первый морпех (Marine One)
скриншот   скриншот   скриншот   скриншот   скриншот   скриншот   скриншот  

Общее
Уникальный идентификатор : 183511618052750414503405237547768682844 (0x8A0F0D522BAF56EFBFCDE3D44EA3195C)
Полное имя : G:\Сериалы\Homeland 1 - LostFilm.TV [720p]\Homeland.S01E01.HD.rus.LostFilm.TV.mkv
Формат : Matroska
Версия формата : Version 2
Размер файла : 1,70 Гбайт
Продолжительность : 54 м.
Общий поток : 4427 Кбит/сек
Дата кодирования : UTC 2011-11-05 15:48:59
Программа кодирования : mkvmerge v4.2.0 ('No Talking') сборка от Jul 28 2010 18:38:23
Библиотека кодирования : libebml v1.0.0 + libmatroska v1.0.0

Видео
Идентификатор : 1
Формат : AVC
Формат/Информация : Advanced Video Codec
Профиль формата : High@L3.1
Параметр CABAC формата : Да
Параметр ReFrames формата : 4 кадра
Идентификатор кодека : V_MPEG4/ISO/AVC
Продолжительность : 54 м.
Битрейт : 4041 Кбит/сек
Ширина : 1280 пикселей
Высота : 720 пикселей
Соотношение сторон : 16:9
Режим частоты кадров : Постоянный
Частота кадров : 23,976 кадра/сек
Цветовое пространство : YUV
Субдискретизация насыщенности : 4:2:0
Битовая глубина : 8 бит
Тип развёртки : Прогрессивная
Бит/(Пиксели*Кадры) : 0.183
Размер потока : 1,52 Гбайт (89%)
Библиотека кодирования : x264 core 107 r1745 4785e8e
Настройки программы : cabac=1 / ref=3 / deblock=1:0:0 / analyse=0x3:0x113 / me=hex / subme=7 / psy=1 / psy_rd=1.00:0.00 / mixed_ref=1 / me_range=16 / chroma_me=1 / trellis=1 / 8x8dct=1 / cqm=0 / deadzone=21,11 / fast_pskip=1 / chroma_qp_offset=-2 / threads=4 / sliced_threads=0 / nr=0 / decimate=1 / interlaced=0 / constrained_intra=0 / bframes=3 / b_pyramid=2 / b_adapt=1 / b_bias=0 / direct=1 / weightb=1 / open_gop=0 / weightp=2 / keyint=250 / keyint_min=25 / scenecut=40 / intra_refresh=0 / rc_lookahead=40 / rc=2pass / mbtree=1 / bitrate=4041 / ratetol=1.0 / qcomp=0.60 / qpmin=10 / qpmax=51 / qpstep=4 / cplxblur=20.0 / qblur=0.5 / ip_ratio=1.40 / aq=1:1.00
Default : Да
Forced : Нет

Аудио
Идентификатор : 2
Формат : AC-3
Формат/Информация : Audio Coding 3
Расширение режима : CM (complete main)
Параметр Endianness формата : Big
Идентификатор кодека : A_AC3
Продолжительность : 54 м.
Вид битрейта : Постоянный
Битрейт : 384 Кбит/сек
Каналы : 2 канала
Расположение каналов : Front: L R
Частота : 44,1 КГц
Битовая глубина : 16 бит
Метод сжатия : С потерями
Размер потока : 151 Мбайт (9%)
Язык : Russian
Default : Да
Forced : Да

pb.wtf



Скачать Родина через торрент https://pic1.kartinco.top/images/81/g9c94.jpg Скачать, смотреть онлайн Родина бесплантно в хорошем качестве Описание: Аналитик ЦРУ Кэрри Мэтисон во время операции в Ираке выясняет, что американский военнопленный завербован Аль-Каедой. Вскоре после ... 8.9 10 12
Info! Золотая раздача, скачанное не засчитывается.
Торрент: Зарегистрирован [2015-01-27 08:22] · скачан: 355 раз
Статус: √ проверено
Размер: 20.26 GB
Как cкачать? Как скачать Родина через торрент | UTorrent

% Раздел Тема Автор DL S | L
Родина / Чужой среди своих / Homeland [ 47.95 GB ] Родина / Homeland / Сезон: 2 / Серии: 1-12 из 12 [2013 BDRip-HEVC 1080p] LostFilm Пифагор Кубик в Кубе RealOldGamer Скачать
1 | 0
Родина / Чужой среди своих / Homeland [ 47.55 GB ] Родина / Homeland / Сезон: 1 / Серии: 1-12 из 12 [2011 BDRip-HEVC 1080p] LostFilm NovaFilm Пифагор RealOldGamer Скачать
1 | 0
Зарубежные сериалы [ 14.84 GB ] Родина: Форт Салем / Motherland: Fort Salem / Сезон: 1 / Серии: 1-10 из 10 [2020 WEB-DL 1080p] MVO [Кириллица] bober100 Скачать
1 | 0
Рок, Панк, Альтернатива (lossless) [ 449 MB ] Западный Фронт - Родина 2019 / FLAC / lossless / Rock bober100 Скачать
1 | 0
Рок, Панк, Альтернатива (lossless) [ 389 MB ] Западный Фронт - Родина 2019 / FLAC / lossless / Rock bober100 Скачать
1 | 0
Рок, Панк, Альтернатива (mp3) [ 127 MB ] Западный Фронт - Родина 2019 / MP3 / 320 kbps / Rock bober100 Скачать
1 | 0
Зарубежные сериалы [ 7.28 GB ] Родина: Форт Салем / Motherland: Fort Salem / Сезон: 1 / Серии: 1-10 из 10 [2020 WEB-DLRip] MVO [Кириллица] bober100 Скачать
1 | 0

28-11-2019 20:33  

Отключить всю рекламу на сайте

    Дорогой пользователь! Огромная просьба, поблагодарите релизера, оцените раздачу и оставьте свои комментарий, если Вы скачали Родина через торрент бесплатно!
    Комментировать посты могут только пользователи прошедшие не сложную регистрацию
    Показать сообщения:    

    Родина через торрент
    Скачать бесплатно Родина
    Родина скачать торрент
    Родина смотреть онлайн
    Cкачать фильм Родина бесплатно
    Родина скачать торрент в хорошем качестве
    Родина смотреть онлайн бесплатно в хорошем качестве


    Вы не можете начинать темы
    Вы не можете отвечать на сообщения
    Вы не можете редактировать свои сообщения
    Вы не можете удалять свои сообщения
    Вы не можете голосовать в опросах
    Вы не можете прикреплять файлы к сообщениям
    Вы можете скачивать файлы