Anonymous, добрый день, присоединяйтесь к нам в Telegram!, здесь всегда актуальный адрес сайта, оперативная поддержка и многое другое!

>

5.5

iTunes

7.4

iTunes

7.9

iTunes

1

7.7

1 сезон

6.8

iTunes

7.3

1 сезон

13

6.7

1 сезон

8.3

RePack

30

ULTIMATE

pack

9.9

Лицензия

ВАЖНО

ИГРА 18+

pack

7.3

RePack

MK11

7.7

RePack

jed

7.8

RePack

fifa19

8.5

RePack

RDR2

RePack

NEED FOR SPEED™ PAYBACK

4 сезон

9 сезон

Бесстыжие 9 сезон

Все сериалы

все сериалы на PB.wtf

RePack

FAR CRY 5

Anonymous, добрый день, мы катастрофически не успеваем собрать деньги на оплату серверов, помогите нам пожалуйста 5,10,15р., для нас важна любая помощь . В качестве благодарности мы отключим Вам всю рекламу на сайте (укажите свой ник в строку Ваше имя)!

×
  
Magnet ссылка

Родина (Второй сезон)/ Homeland(The Complete Second Season) 12(12)(Майкл Куэста, Кларк Джонсон, Джеффри Начманофф) [2012 г., драма, криминал, детектив, WEB-DLRip 720p,]MVO(LostFilm) +Original pb.wtf

Родина через торрент pb.wtf

Размер: 21.24 GB | Добавлен: 6 лет 8 мес. назад | Торрент скачан:104 раза
Смотреть онлайн Родина | Скачать    Ребята, помогите собрать деньги на оплату серверов!!!

27-01-2015 09:58 Родина Скачать торрент  

Родина(Второй сезон) / Homeland(The Complete Second Season)
Год выпуска: 2012
Страна: США
Жанр: драма, криминал, детектив
Продолжительность: ~ 00:55:00
Перевод: Профессиональный многоголосый(LostFilm)

Режиссер: Майкл Куэста, Кларк Джонсон, Джеффри Начманофф




В ролях: Клэр Дэйнс, Дамиан Льюис, Морена Баккарин, Дэвид Хэрвуд, Диего Клаттенхофф, Джексон Паке, Моргон Сэйлор, Мэнди Пэтинкин, Дэвид Марсиано, Навид Негабан и др.

Описание: Аналитик ЦРУ Кэрри Мэтисон во время операции в Ираке выясняет, что американский военнопленный завербован Аль-Каедой. Вскоре после этого отряд спецназа Дельта во время зачистки обнаруживает сержанта морской пехоты Николаса Броуди, который числился пропавшим без вести с 2003-го года. Понимая, что доказать виновность Броуди будет практически невозможно, Кэрри обращается за помощью к своему наставнику Солу Беренсону. Вместе они будут вести расследование, чтобы предотвратить очередной теракт на территории США.

Качество: WEB-DLRip 720p
Формат: MKV
Видео кодек: AVC
Аудио кодек: AC3
Видео: 1280x720 (16:9), 23.976 fps, 4 041 Kbps (0.183 bit/pixel)
Аудио#1: 44.1 KHz, 2 ch, 384 Kbps, CBR (Russian)
Аудио#2: 48.0 KHz, 2 ch, 384 Kbps, CBR (English)
1. Улыбка (The Smile)
2. Снова Бейрут (Beirut Is Back)
3. Штат независимости (State of Independence)
4. Запах новой машины (New Car Smell)
5. Вопросы и ответы (Q&A)
6. Адрес в Геттисбурге (A Gettysburg Address)
7. Поляна (The Clearing)
8. Улечу я далеко (I'll Fly Away)
9. Совместитель (Two Hats)
10. Разбитые сердца (Broken Hearts)
11. Светлая память (In Memoriam)
12. Выбор (The Choice)
скриншот   скриншот   скриншот   скриншот   скриншот   скриншот   скриншот  

Общее
Уникальный идентификатор : 216653898570300664010325987942476804589 (0xA2FE05E8BBB6D47EB22BAC582D4BF1ED)
Полное имя : G:\Сериалы\Homeland 2 - LostFilm.TV [720p]\Homeland.S02E01.HD.rus.LostFilm.TV.mkv
Формат : Matroska
Версия формата : Version 2
Размер файла : 1,88 Гбайт
Продолжительность : 55 м.
Общий поток : 4810 Кбит/сек
Дата кодирования : UTC 2012-10-03 16:50:36
Программа кодирования : mkvmerge v4.2.0 ('No Talking') сборка от Jul 28 2010 18:38:23
Библиотека кодирования : libebml v1.0.0 + libmatroska v1.0.0

Видео
Идентификатор : 1
Формат : AVC
Формат/Информация : Advanced Video Codec
Профиль формата : High@L3.1
Параметр CABAC формата : Да
Параметр ReFrames формата : 4 кадра
Идентификатор кодека : V_MPEG4/ISO/AVC
Продолжительность : 55 м.
Битрейт : 4041 Кбит/сек
Ширина : 1280 пикселей
Высота : 720 пикселей
Соотношение сторон : 16:9
Режим частоты кадров : Постоянный
Частота кадров : 23,976 кадра/сек
Цветовое пространство : YUV
Субдискретизация насыщенности : 4:2:0
Битовая глубина : 8 бит
Тип развёртки : Прогрессивная
Бит/(Пиксели*Кадры) : 0.183
Размер потока : 1,54 Гбайт (82%)
Библиотека кодирования : x264 core 112 r1834 a51816a
Настройки программы : cabac=1 / ref=1 / deblock=1:0:0 / analyse=0x3:0x113 / me=hex / subme=7 / psy=1 / psy_rd=1.00:0.00 / mixed_ref=0 / me_range=16 / chroma_me=1 / trellis=1 / 8x8dct=1 / cqm=0 / deadzone=21,11 / fast_pskip=1 / chroma_qp_offset=-2 / threads=6 / sliced_threads=0 / nr=0 / decimate=1 / interlaced=0 / constrained_intra=0 / bframes=3 / b_pyramid=2 / b_adapt=1 / b_bias=0 / direct=1 / weightb=1 / open_gop=0 / weightp=2 / keyint=250 / keyint_min=25 / scenecut=40 / intra_refresh=0 / rc_lookahead=40 / rc=2pass / mbtree=1 / bitrate=4041 / ratetol=1.0 / qcomp=0.60 / qpmin=0 / qpmax=51 / qpstep=4 / cplxblur=20.0 / qblur=0.5 / ip_ratio=1.40 / aq=1:1.00
Default : Да
Forced : Нет

Аудио #1
Идентификатор : 2
Формат : AC-3
Формат/Информация : Audio Coding 3
Расширение режима : CM (complete main)
Параметр Endianness формата : Big
Идентификатор кодека : A_AC3
Продолжительность : 55 м.
Вид битрейта : Постоянный
Битрейт : 384 Кбит/сек
Каналы : 2 канала
Расположение каналов : Front: L R
Частота : 44,1 КГц
Битовая глубина : 16 бит
Метод сжатия : С потерями
Размер потока : 154 Мбайт (8%)
Default : Да
Forced : Нет

Аудио #2
Идентификатор : 3
Формат : AC-3
Формат/Информация : Audio Coding 3
Расширение режима : CM (complete main)
Параметр Endianness формата : Big
Идентификатор кодека : A_AC3
Продолжительность : 55 м.
Вид битрейта : Постоянный
Битрейт : 384 Кбит/сек
Каналы : 2 канала
Расположение каналов : Front: L R
Частота : 48,0 КГц
Битовая глубина : 16 бит
Метод сжатия : С потерями
Размер потока : 154 Мбайт (8%)
Default : Нет
Forced : Нет

pb.wtf



Скачать Родина через торрент https://pic1.kartinco.top/images/81/a91ch.jpg Скачать, смотреть онлайн Родина бесплантно в хорошем качестве Описание: Аналитик ЦРУ Кэрри Мэтисон во время операции в Ираке выясняет, что американский военнопленный завербован Аль-Каедой. Вскоре после ... 8.6 10 9
Info! Золотая раздача, скачанное не засчитывается.
Торрент: Зарегистрирован [2015-01-27 09:58] · скачан: 104 раз
Статус: √ проверено
Размер: 21.24 GB
Как cкачать? Как скачать Родина через торрент | UTorrent

% Раздел Тема Автор DL S | L
Родина / Чужой среди своих / Homeland [ 19.68 GB ] Родина / Чужой среди своих / Homeland / Сезон: 4 / Серии: 1-12 [2014 WEB-DL 720p] MVO [Amedia] + Original Assasinca Скачать
1 | 0
Родина / Чужой среди своих / Homeland [ 7.65 GB ] Родина / Чужой среди своих / Homeland / Сезон: 4 / Серии: 1-12 [2014 WEB-DLRip ] MVO [Пифагор] + Original Assasinca Скачать
1 | 0
Родина / Чужой среди своих / Homeland [ 20.62 GB ] Родина / Чужой среди своих / Homeland / Сезон: 3 / Серии: 1-12 [2013 WEB-DL 720p] DVO [Кубик в Кубе] + Original Messa-fan Скачать
1 | 0
Родина / Чужой среди своих / Homeland [ 20.62 GB ] Родина / Чужой среди своих / Homeland / Сезон: 3 / Серии: 1-12 [2013 WEB-DL 720p] MVO [Пифагор по заказу Амедиа] + Original Eng + Sub Messa-fan Скачать
1 | 0

28-11-2019 20:33  

Отключить всю рекламу на сайте

03-12-2015 05:48 Родина Скачать торрент  

Дайте пожалуйста скоростиpb.wtf



26-12-2015 15:18 Родина Скачать торрент  

дайте скачать блинpb.wtf



26-12-2015 15:29 Родина Скачать торрент  

скачать!pb.wtf



26-12-2015 15:30 Родина Скачать торрент  

скачать
скачать
скачать!pb.wtf



    Дорогой пользователь! Огромная просьба, поблагодарите релизера, оцените раздачу и оставьте свои комментарий, если Вы скачали Родина через торрент бесплатно!
    Комментировать посты могут только пользователи прошедшие не сложную регистрацию
    Показать сообщения:    

    Родина через торрент
    Скачать бесплатно Родина
    Родина скачать торрент
    Родина смотреть онлайн
    Cкачать фильм Родина бесплатно
    Родина скачать торрент в хорошем качестве
    Родина смотреть онлайн бесплатно в хорошем качестве


    Вы не можете начинать темы
    Вы не можете отвечать на сообщения
    Вы не можете редактировать свои сообщения
    Вы не можете удалять свои сообщения
    Вы не можете голосовать в опросах
    Вы не можете прикреплять файлы к сообщениям
    Вы можете скачивать файлы