Ссылка на приватное зеркало нашего сайта всего за 1$. Внимание количество ограничено!!!

2 сезон

iTunes

1 сезон

1

2 сезон

2 сезон

iTunes

1 сезон

RePack

30

Новинка

ВАЖНО

ИГРА 18+

pack

RePack

MK11
pack

Забери бонус

RePack

jed

!!Акция!!

Alien_Rage

RePack

fifa19

RePack

Assassins Creed: Odyssey

RePack

NEED FOR SPEED™ PAYBACK

4 сезон

9 сезон

Бесстыжие 9 сезон

Все сериалы

все сериалы на PB.wtf

RePack

FAR CRY 5
  

Сражайся! Дракон / Дерущийся дракон / Shen quan fei long / Fight! Dragon / Серии: 1-8 из 26 (Сото Яма Тору) [1974 г.,Боевик, боевые искусства, драма , DVDRip] VO (Виктор Береговых) pb.wtf

Сражайся! Дракон через торрент pb.wtf

Размер: 2.35 GB | Добавлен: 5 лет 9 мес. назад | Торрент скачан:25 раз
Скачать  

27-01-2015 21:46 Сражайся! Дракон Скачать торрент  

Сражайся! Дракон / Дерущийся дракон / Shen quan fei long / Fight! DragonГод выпуска: 1974
Страна:Гонконг, Япония Golden Films Company, Navarre Corporation
Жанр: Боевик, боевые искусства, драма
Продолжительность: 8 х ~ 00:26:00
Перевод: Любительский одноголосый
Автор релиза, озвучки и описания: Виктор Береговых

Режиссер: Сото Яма Тору
Продюссер: Йин Фэнг Хсиао
Сценарий: Ших Ву

Премьера в мире: 3 марта 1980 В ролях: Курата Ясуаки, Боло Янг, Брюс Лён, Акатсуко Макото, Митани Набору, Лау Чан, Ну Чан, Джин Чу, Фукава Фусаё, Ка Тинг Ли, Ке Минг Лин, Тамагава Исао

Описание: Рюума Ширануи,более известный как Дракон, узнает о смерти своего учителя и прилетает в Гонконг. Поиски убийцы выводят его на гильдию убийц "Тень". Эта организация славится своим умением убивать. Ее члены не пользуются огнестрельным или холодным оружием и все смерти обставлены как несчастные случаи или самоубийства. Глава гильдии Черная пантера всеми способами пытается избавиться от Дракона и подсылает к нему разных убийц, но Дракон каждый раз выходит сухим из воды. Сможет ли Рюума добраться до Черной пантеры и уничтожить "Тень"?
1.Дракон прилетает в Гонконг
2.Дракон против Фиолетовой Змеи
3.Дракон против Красного Скорпиона
4.Дракон против Голубой Кошки
5.Дракон против Серебряного Богомола
6.Дракон против Женщины - Дракона
7.Дракон на острове дьявола
8.Дракон в опасности
9.Темное карате
10.Дракон против Коричневой Ящерицы
11.Дракон против Серой Лисы
12.Дракон против Желтой Змеи
13.Дракон против Одноглазого Кондора
14.Дракон против Мурены
15.Дракон против Черной Пантеры
16.Дракон против Вихря
17.Дракон и кулак демона
18.Дракон против Шторма,Грома и Молнии
19.Карате против Тай Чи
20.Дракон и Борец - Демон
21.Дракон и Мотоциклист - Убийца
22.Невероятный человек из Гонконга
23.Дракон против Урагана
24.Чемпион мира по карате
25.Дракон против Темного Тигра
26.Прощай,Дракон!
Качество: DVDRip
Формат: AVI
Видео кодек: XviD
Аудио кодек: AC3
Видео: Xvid 720x544 23.976fps 1307kbps
Аудио: Dolby AC3 48000Hz stereo 192kbps
Релиз от: Katju
Скриншоты:скриншот  скриншот  скриншот  скриншот  скриншот  скриншот  
General
Complete name : E:\01 02 2013\Fight! Dragon\01 seriya.avi
Format : AVI
Format/Info : Audio Video Interleave
File size : 248 MiB
Duration : 22mn 56s
Overall bit rate : 1 509 Kbps
Writing application : VirtualDubMod 1.5.10.2 (build 2540/release)
Writing library : VirtualDub build 35491/release

Video
ID : 0
Format : MPEG-4 Visual
Format profile : Advanced Simple@L5
Format settings, BVOP : 1
Format settings, QPel : No
Format settings, GMC : No warppoints
Format settings, Matrix : Custom
Codec ID : XVID
Codec ID/Hint : XviD
Duration : 22mn 56s
Bit rate : 1 307 Kbps
Width : 720 pixels
Height : 544 pixels
Display aspect ratio : 4:3
Frame rate : 23.976 fps
Color space : YUV
Chroma subsampling : 4:2:0
Bit depth : 8 bits
Scan type : Progressive
Compression mode : Lossy
Bits/(Pixel*Frame) : 0.139
Stream size : 215 MiB (87%)
Writing library : XviD 1.2.0.dev47 (UTC 2006-11-01)

Audio
ID : 1
Format : AC-3
Format/Info : Audio Coding 3
Mode extension : CM (complete main)
Format settings, Endianness : Big
Codec ID : 2000
Duration : 22mn 56s
Bit rate mode : Constant
Bit rate : 192 Kbps
Channel(s) : 2 channels
Channel positions : Front: L R
Sampling rate : 48.0 KHz
Bit depth : 16 bits
Compression mode : Lossy
Stream size : 31.5 MiB (13%)
Alignment : Split accross interleaves
Interleave, duration : 42 ms (1.00 video frame)
Interleave, preload duration : 500 ms

Внимание! Раздача ведётся путём добавления новых серий; при каждом добавлении создаётся новый торрент-файл. Чтобы начать дозакачку новой серии, пользователям необходимо сделать следующее:
(1) остановить скачивание,
(2) удалить старый торрент-файл у себя из клиента (старые серии удалять не надо),
(3) скачать новый торрент-файл и запустить его у себя в клиенте вместо старого, при этом указать клиенту путь в старую папку куда и должно происходить скачивание новых серий.
Ваш клиент при этом должен произвести хеширование (проверку) старой папки (если не производит сам - помогите ему сделать это), и будет докачивать только те серии которых у вас ещё нет. Старые серии при этом не удаляются, а продолжают раздаваться!
Eсли вы уже удалили старые серии, то предотвратить повторную закачку старых серий можно, отжав галочку в соответствующих местах при запуске нового торрента.
Добавил 7 и 8 Серии!Обновите торрент!pb.wtf



Скачать Сражайся! Дракон через торрент http://pic.kartinco.top/images/8/fow9g.jpg Скачать фильм Сражайся! Дракон через торрент бесплантно в хорошем качестве Описание: Рюума Ширануи,более известный как Дракон, узнает о смерти своего учителя и прилетает в . Поиски убийцы выводят его на ... 9.7 10 7
Info! Золотая раздача, скачанное не засчитывается.
Торрент: Зарегистрирован [2015-02-21 04:25] · скачан: 25 раз
Статус: √ проверено
Размер: 2.35 GB
Как cкачать? Как скачать Сражайся! Дракон через торрент | qTorrent



Последний раз редактировалось: lug30 (2015-02-21 04:24), всего редактировалось 4 раз(а)

28-11-2019 20:33  

Отключить всю рекламу на сайте

27-01-2015 21:55 Сражайся! Дракон Скачать торрент  

Трейлера не нашел :smok:pb.wtf



04-02-2015 15:01 Сражайся! Дракон Скачать торрент  

Добавил 5 и 6 Серии!Обновите торрент!pb.wtf



04-02-2015 15:05 Сражайся! Дракон Скачать торрент  

Боло! Вот это да! Огроменное спасибо!pb.wtf



04-02-2015 15:14 Сражайся! Дракон Скачать торрент  

скриншот  pb.wtf



21-02-2015 04:26 Сражайся! Дракон Скачать торрент  

Добавил 7 и 8 Серии!Обновите торрент!pb.wtf



    Дорогой пользователь! Огромная просьба, поблагодарите релизера, оцените раздачу и оставьте свои комментарий, если Вы скачали Сражайся! Дракон через торрент бесплатно! Внесите свою лепту в развитие PiratBit!
    Комментировать посты могут только пользователи прошедшие не сложную регистрацию
    Показать сообщения:    

    Сражайся! Дракон через торрент
    Скачать бесплатно Сражайся! Дракон
    Сражайся! Дракон скачать торрент
    Сражайся! Дракон смотреть онлайн
    Cкачать фильм Сражайся! Дракон бесплатно
    Сражайся! Дракон скачать торрент в хорошем качестве
    Сражайся! Дракон смотреть онлайн бесплатно в хорошем качестве


    Вы не можете начинать темы
    Вы не можете отвечать на сообщения
    Вы не можете редактировать свои сообщения
    Вы не можете удалять свои сообщения
    Вы не можете голосовать в опросах
    Вы не можете прикреплять файлы к сообщениям
    Вы можете скачивать файлы