Ссылка на приватное зеркало нашего сайта всего за 1$. Внимание количество ограничено!!!

2 сезон

iTunes

1 сезон

1

2 сезон

2 сезон

iTunes

1 сезон

RePack

30

Ultimate

ВАЖНО

ИГРА 18+

pack

RePack

MK11
pack

Забери бонус

RePack

jed

!!Акция!!

Alien_Rage

RePack

fifa19

RePack

Assassins Creed: Odyssey

RePack

NEED FOR SPEED™ PAYBACK

4 сезон

9 сезон

Бесстыжие 9 сезон

Все сериалы

все сериалы на PB.wtf

RePack

FAR CRY 5
  

Сыны свободы / Sons of Liberty / Мини-сериал / Серия 1-3(3)(Кари Скогланд) [2015 г., драма, история, WEB-DLRip 720p]MVO(AlexFilm)+Original pb.wtf

Сыны свободы через торрент pb.wtf

Размер: 7.85 GB | Добавлен: 5 лет 9 мес. назад | Торрент скачан:14 раз
Скачать  

28-01-2015 06:27 Сыны свободы Скачать торрент  

Сыны свободы / Sons of Liberty
Год выпуска: 2015
Страна: США
Жанр: драма, история
Продолжительность: 01:23:00
Перевод: Профессиональный многоголосый(AlexFilm)

Режиссер: Кари Скогланд



В ролях: Бен Барнс, Мартон Чокаш, Райан Игголд, Майкл Рэймонд-Джеймс, Рейф Сполл, Генри Томас, Джейсон О’Мара, Дин Норрис, Эмили Беррингтон, Кевин Дж. Райан, Стив Гуттенберг, Шэйн Тейлор

Описание: Мини-сериал "Сыны свободы" рассказывает о радикальной группе молодых людей - Сэме Адамсе, Джоне Адамсе, Поле Ревире, Джоне Хэнкоке и Джозефе Уоррене, который объединившись смогли изменить ход истории.
Назвав себя "Сынами свободы", они зажгли огонь революции, в результате которой Америка стала государством.
Хоть сейчас их имена стали легендами, они отнюдь не были патриотами в напудренных париках. Они принадлежали новому американскому поколению, пытающемуся найти своё предназначение в жизни.
Они искали равенства, но нашли нечто более ценное: независимость.

Качество: WEB-DLRip 720p
Формат: MKV
Видео кодек: AVC
Аудио кодек: AC3
Видео: 1280x716 (16:9), 23.976 fps, 3 921 Kbps (0.178 bit/pixel)
Аудио#1: 48.0 KHz, 6 ch, 384 Kbps, CBR (Russian)
Аудио#2: 48.0 KHz, 6 ch, 384 Kbps, CBR (English)

Перевод: Константин Кривоногов
Монтаж и сведение звука: Михаил Шорыгин
Роли озвучивали:
Татьяна Манетина
Михаил Суслов
Владимир Курдов
Сергей Пономарёв
Андрей Стакионис
Константин Погодаев
Постер: Андрей Шапал
Внимание! Раздача ведётся путём добавления новых серий; при каждом добавлении создаётся новый торрент. Чтобы начать докачку новой серии, пользователям необходимо сделать следующее:
(1) остановить скачивание,
(2) удалить старый торрент у себя из клиента (старые серии удалять не надо),
(3) скачать новый торрент и запустить его у себя в клиенте вместо старого, при этом указать клиенту путь в старую папку куда и должно происходить скачивание новых серий.
Ваш клиент при этом должен произвести хеширование (проверку) старой папки (если не производит сам - помогите ему сделать это), и будет докачивать только те серии которых у вас ещё нет. Старые серии при этом не удаляются, а продолжают раздаваться!
Eсли вы уже удалили старые серии, то предотвратить повторную закачку старых серий можно, отжав галочку в соответствующих местах при запуске нового торрента. По возможности, желательно не удалять старые серии как можно дольше чтобы релизёр не столько продолжал раздавать старые серии, а смог сконцентрироваться на новых.
скриншот   скриншот   скриншот   скриншот   скриншот   скриншот  

General
Unique ID : 170856743069325355502436742734882429756 (0x8089CFD00333D037883D23E9B5DE5B3C)
Complete name : G:\Сериалы\Сыны свободы Sons of Liberty мини-сериал\Sons.of.Liberty.2015.WEB-DL.720p.AlexFilm\Sons.of.Liberty.E01.A.Dangerous.Game.WEB-DL.720p.Rus.Eng.AlexFilm.mkv
Format : Matroska
Format version : Version 4 / Version 2
File size : 2.79 GiB
Duration : 1h 23mn
Overall bit rate : 4 785 Kbps
Movie name : Sons of Liberty E01 A Dangerous Game @ AlexFilm
Encoded date : UTC 2015-01-27 16:50:19
Writing application : mkvmerge v6.6.0 ('The Edge Of The In Between') built on Dec 1 2013 17:55:00
Writing library : libebml v1.3.0 + libmatroska v1.4.1

Video
ID : 1
Format : AVC
Format/Info : Advanced Video Codec
Format profile : High@L3.1
Format settings, CABAC : No
Format settings, ReFrames : 2 frames
Codec ID : V_MPEG4/ISO/AVC
Duration : 1h 23mn
Bit rate : 3 921 Kbps
Width : 1 280 pixels
Height : 716 pixels
Display aspect ratio : 16:9
Frame rate mode : Constant
Frame rate : 23.976 fps
Color space : YUV
Chroma subsampling : 4:2:0
Bit depth : 8 bits
Scan type : Progressive
Bits/(Pixel*Frame) : 0.178
Stream size : 2.28 GiB (82%)
Language : English
Default : Yes
Forced : No
Color primaries : BT.709
Transfer characteristics : BT.709
Matrix coefficients : BT.709
Color range : Limited

Audio #1
ID : 2
Format : AC-3
Format/Info : Audio Coding 3
Mode extension : CM (complete main)
Format settings, Endianness : Big
Codec ID : A_AC3
Duration : 1h 23mn
Bit rate mode : Constant
Bit rate : 384 Kbps
Channel(s) : 6 channels
Channel positions : Front: L C R, Side: L R, LFE
Sampling rate : 48.0 KHz
Bit depth : 16 bits
Compression mode : Lossy
Stream size : 229 MiB (8%)
Title : DD5.1 AlexFilm
Language : Russian
Default : Yes
Forced : No

Audio #2
ID : 3
Format : AC-3
Format/Info : Audio Coding 3
Mode extension : CM (complete main)
Format settings, Endianness : Big
Codec ID : A_AC3
Duration : 1h 23mn
Bit rate mode : Constant
Bit rate : 384 Kbps
Channel(s) : 6 channels
Channel positions : Front: L C R, Side: L R, LFE
Sampling rate : 48.0 KHz
Bit depth : 16 bits
Compression mode : Lossy
Stream size : 229 MiB (8%)
Title : DD5.1 Original
Language : English
Default : No
Forced : No

pb.wtf



Скачать Сыны свободы через торрент http://pic.kartinco.top/images/8/x5h2n.jpg Скачать фильм Сыны свободы через торрент бесплантно в хорошем качестве Описание: Мини-сериал "Сыны свободы" рассказывает о радикальной группе молодых людей - Сэме Адамсе, Джоне Адамсе, Поле Ревире, Джоне ... 8.5 10 6
Info! Золотая раздача, скачанное не засчитывается.
Торрент: Зарегистрирован [2015-02-09 06:28] · скачан: 14 раз
Статус: √ проверено
Размер: 7.85 GB
Как cкачать? Как скачать Сыны свободы через торрент | qTorrent



Последний раз редактировалось: Assasinca (2015-02-09 06:28), всего редактировалось 2 раз(а)

28-11-2019 20:33  

Отключить всю рекламу на сайте

30-01-2015 14:07 Сыны свободы Скачать торрент  

Добавлена 3-я серия. Финалpb.wtf



    Дорогой пользователь! Огромная просьба, поблагодарите релизера, оцените раздачу и оставьте свои комментарий, если Вы скачали Сыны свободы через торрент бесплатно! Внесите свою лепту в развитие PiratBit!
    Комментировать посты могут только пользователи прошедшие не сложную регистрацию
    Показать сообщения:    

    Сыны свободы через торрент
    Скачать бесплатно Сыны свободы
    Сыны свободы скачать торрент
    Сыны свободы смотреть онлайн
    Cкачать фильм Сыны свободы бесплатно
    Сыны свободы скачать торрент в хорошем качестве
    Сыны свободы смотреть онлайн бесплатно в хорошем качестве


    Вы не можете начинать темы
    Вы не можете отвечать на сообщения
    Вы не можете редактировать свои сообщения
    Вы не можете удалять свои сообщения
    Вы не можете голосовать в опросах
    Вы не можете прикреплять файлы к сообщениям
    Вы можете скачивать файлы