Всегда рабочее зеркало без VPN и Proxy просто перед .vidak.icu напиши любое слово или цифру, Пример http://9852.vidak.icu

Лицензия

MVO

1 сезон

1

1 сезон

iTunes

1 сезон

13

1 сезон

Deluxe

pack

Рекомендуем

Repack

30

ВАЖНО

RePack

MK11

RePack

jed

RePack

fifa19

RePack

RDR2

RePack

NEED FOR SPEED™ PAYBACK

Кинопоиск HD

6 сезон

 Острые козырьки 6 сезон

Все сериалы

все сериалы на PB.wtf

RePack

FAR CRY 5
  
Magnet ссылка

Астерикс: Земля Богов / Astérix: Le domaine des dieux (Луис Клиши , Александр Астье ) [2014, мультфильм, приключения, фэнтези, WEB-DLRip, Дубляж] iTunes pb.wtf

Астерикс: Земля Богов через торрент pb.wtf

Размер: 1.37 GB | Добавлен: 7 лет 6 мес. назад | Торрент скачан:2241 раз
Смотреть онлайн Астерикс: Земля Богов | Скачать    Ребята, помогите собрать деньги на оплату серверов!!!

28-01-2015 15:52 Астерикс: Земля Богов Скачать торрент  

Астерикс: Земля Богов / Astérix: Le domaine des dieux

Год выпуска: 2014
Страна: Франция
Жанр: мультфильм, приключения, фэнтези, комедия
Продолжительность: 01:21:58
Перевод: Дубляж - [Лицензия / iTunes]
Режиссер: Луис Клиши , Александр Астье
В ролях: Роже Карель (Astérix, озвучка), Лоран Дойч (Anglaigus, озвучка), Лоран Лафитт (Duplicatha, озвучка), Александр Астье (Oursenplus, озвучка), Ален Шаба (Sénateur Prospectus, озвучка), Эли Семун (Cubitus, озвучка), Жеральдин Накаш (Dulcia, озвучка), Артюс де Пенгерн (Petiminus, озвучка), Лионель Астье (Cétautomatix, озвучка), Франсуа Морель (Ordralfabétix, озвучка), Гийом Бриа (Obélix, озвучка), Флоренс Форести (Bonemine, озвучка)
Описание:
Астерикс и его лучший друг Обеликс продолжают свою многолетнюю борьбу с Цезарем, который хочет наконец-то расправиться с неукротимыми галлами. Вокруг деревни Астерикса Цезарь приказывает построить новый Рим - Землю Богов. В галльской деревне хаос и смятение. Но Астерикс и Обеликс не сдаются!
Рейтинг:

Качество: WEB-DLRip
Формат: AVI
Видео кодек: XviD
Аудио кодек:AC3
Видео: XviD, 720x400 (16:9), 1900 kbps, 25 fps, 0,264 bpp
Аудио: AC3 / 5.1 / 48 kHz / 384 kbps / 16 bit

Код:

General
Complete name                            : D:\Торенты\Astericks.2014.D.WEB-DLRip.1400Mb.avi
Format                                   : AVI
Format/Info                              : Audio Video Interleave
File size                                : 1.37 GiB
Duration                                 : 1h 21mn
Overall bit rate                         : 2 388 Kbps
Writing application                      : VirtualDubMod 1.5.10.2 (build 2540/release)
Writing library                          : VirtualDubMod build 2540/release

Video
ID                                       : 0
Format                                   : MPEG-4 Visual
Format profile                           : Advanced [email protected]
Format settings, BVOP                    : 2
Format settings, QPel                    : No
Format settings, GMC                     : No warppoints
Format settings, Matrix                  : Default (MPEG)
Codec ID                                 : XVID
Codec ID/Hint                            : XviD
Duration                                 : 1h 21mn
Bit rate                                 : 1 900 Kbps
Width                                    : 720 pixels
Height                                   : 400 pixels
Display aspect ratio                     : 16:9
Frame rate                               : 25.000 fps
Color space                              : YUV
Chroma subsampling                       : 4:2:0
Bit depth                                : 8 bits
Scan type                                : Progressive
Compression mode                         : Lossy
Bits/(Pixel*Frame)                       : 0.264
Stream size                              : 1.09 GiB (80%)
Writing library                          : XviD 1.2.1 (UTC 2008-12-04)

Audio
ID                                       : 1
Format                                   : AC-3
Format/Info                              : Audio Coding 3
Mode extension                           : CM (complete main)
Codec ID                                 : 2000
Duration                                 : 1h 21mn
Bit rate mode                            : Constant
Bit rate                                 : 384 Kbps
Channel(s)                               : 6 channels
Channel positions                        : Front: L C R, Side: L R, LFE
Sampling rate                            : 48.0 KHz
Bit depth                                : 16 bits
Compression mode                         : Lossy
Stream size                              : 225 MiB (16%)
Alignment                                : Split accross interleaves

pb.wtf



Скачать Астерикс: Земля Богов через торрент http://i68.fastpic.ru/big/2015/0128/a3/91789b2477999aaa6711c6691af014a3.jpg Скачать, смотреть онлайн Астерикс: Земля Богов бесплантно в хорошем качестве Описание: Астерикс и его лучший друг Обеликс продолжают свою многолетнюю борьбу с Цезарем, который хочет наконец-то расправиться с ... 9.5 10 55
Info! Золотая раздача, скачанное не засчитывается.
Торрент: Зарегистрирован [2015-01-28 15:52] · скачан: 2 241 раз
Статус: √ проверено
Размер: 1.37 GB
Как cкачать? Как скачать Астерикс: Земля Богов через торрент | UTorrent

28-11-2019 20:33  

Отключить вcю реклaмy на сайте

30-01-2015 08:00 Астерикс: Земля Богов Скачать торрент  

Качество отличное,звук отличный.Ребенку мульт понравился,смотрел с ребенком.Могу сказать из 10 тянет на 7,5 pb.wtf



    Дорогой пользователь! Огромная просьба, поблагодарите релизера, оцените раздачу и оставьте свои комментарий, если Вы скачали Астерикс: Земля Богов через торрент бесплатно!
    Комментировать посты могут только пользователи прошедшие не сложную регистрацию
    Показать сообщения:    

    Астерикс: Земля Богов через торрент
    Скачать бесплатно Астерикс: Земля Богов
    Астерикс: Земля Богов скачать торрент
    Астерикс: Земля Богов смотреть онлайн
    Cкачать фильм Астерикс: Земля Богов бесплатно
    Астерикс: Земля Богов скачать торрент в хорошем качестве
    Астерикс: Земля Богов смотреть онлайн бесплатно в хорошем качестве


    Вы не можете начинать темы
    Вы не можете отвечать на сообщения
    Вы не можете редактировать свои сообщения
    Вы не можете удалять свои сообщения
    Вы не можете голосовать в опросах
    Вы не можете прикреплять файлы к сообщениям
    Вы можете скачивать файлы