2 сезон

iTunes

1 сезон

1

iTunes

iTunes

iTunes

1 сезон

RePack

30

ИГРА 18+

pack

ВАЖНО

!!Акция!!

Alien_RageХит недели

RePack

MK11
pack

Забери бонус

RePack

jed

!!Акция!!

Alien_Rage

RePack

fifa19

RePack

Assassins Creed: Odyssey

RePack

NEED FOR SPEED™ PAYBACK

4 сезон

9 сезон

Бесстыжие 9 сезон

Все сериалы

все сериалы на PB.wtf

RePack

FAR CRY 5
  

Снежная королева 2: Перезаморозка (Алексей Цицилин ) [2014, мультфильм, фэнтези, приключения, WEB-DLRip [iTunes] pb.wtf

Снежная королева 2: Перезаморозка через торрент pb.wtf

Размер: 1.37 GB | Добавлен: 5 лет 9 мес. назад | Торрент скачан:1816 раз
Скачать  

28-01-2015 21:35 Снежная королева 2: Перезаморозка Скачать торрент  

Снежная королева 2: Перезаморозка

Год выпуска: 2014
Страна: Россия
Жанр: мультфильм, фэнтези, приключения, семейный
Продолжительность: 01:18:20
Перевод: Не требуется
Режиссер: Алексей Цицилин
В ролях: Иван Охлобыстин (Орм, озвучка), Нюша Шурочкина (Герда, озвучка), Анна Хилькевич (Марибель, озвучка), Александр Уман (Рахат, озвучка), Игорь Бортник (Лукум, озвучка), Алексей Лихницкий (охранник, озвучка), Роман Юнусов (охранник, озвучка), Александр Гудков (глашатый, озвучка), Михаил Тихонов (начальник шахты, озвучка)
Описание:
Тщеславный тролль Орм давно мечтает о лаврах героя, и наконец получает этот шанс: северный ветер грозит миру вечной зимой и похищает Марибель. Рука принцессы и королевство троллей достанутся тому, кто вызволит ее из снежного плена. Однажды Орм победил зиму с помощью друзей, теперь он хочет действовать в одиночку. На нем доспехи из сковородок, за ним - отряд трусливых троллей, а впереди - опасный путь к замку Снежной королевы. Но, к счастью, друзья не помнят обид: храбрая Герда, застенчивый Кай, удалая Альфида и весёлая Лута не бросят Орма в беде. А значит их ждут невероятные приключения!
Рейтинг:

Качество: WEB-DLRip
Формат: AVI
Видео кодек: XviD
Аудио кодек:AC3
Видео: XviD, 720x304 (2.35:1), 2105 kbps, 24 fps, 0,401 bpp
Аудио: AC3 / 5.1 / 48 kHz / 384 kbps / 16 bit

Код:

General
Complete name                            : D:\Торенты\Snegnaya.K0roleva.2014.O.WEB-DLRip.1400Mb.avi
Format                                   : AVI
Format/Info                              : Audio Video Interleave
File size                                : 1.37 GiB
Duration                                 : 1h 18mn
Overall bit rate                         : 2 499 Kbps
Writing application                      : VirtualDubMod 1.5.10.2 (build 2540/release)
Writing library                          : VirtualDubMod build 2540/release

Video
ID                                       : 0
Format                                   : MPEG-4 Visual
Format profile                           : Advanced Simple@L5
Format settings, BVOP                    : 2
Format settings, QPel                    : No
Format settings, GMC                     : No warppoints
Format settings, Matrix                  : Default (MPEG)
Codec ID                                 : XVID
Codec ID/Hint                            : XviD
Duration                                 : 1h 18mn
Bit rate                                 : 2 106 Kbps
Width                                    : 720 pixels
Height                                   : 304 pixels
Display aspect ratio                     : 2.35:1
Frame rate                               : 24.000 fps
Color space                              : YUV
Chroma subsampling                       : 4:2:0
Bit depth                                : 8 bits
Scan type                                : Progressive
Compression mode                         : Lossy
Bits/(Pixel*Frame)                       : 0.401
Stream size                              : 1.15 GiB (84%)
Writing library                          : XviD 1.2.1 (UTC 2008-12-04)

Audio
ID                                       : 1
Format                                   : AC-3
Format/Info                              : Audio Coding 3
Mode extension                           : CM (complete main)
Codec ID                                 : 2000
Duration                                 : 1h 18mn
Bit rate mode                            : Constant
Bit rate                                 : 384 Kbps
Channel(s)                               : 6 channels
Channel positions                        : Front: L C R, Side: L R, LFE
Sampling rate                            : 48.0 KHz
Bit depth                                : 16 bits
Compression mode                         : Lossy
Stream size                              : 215 MiB (15%)
Alignment                                : Split accross interleaves
Interleave, duration                     : 42 ms (1.00 video frame)
Interleave, preload duration             : 500 ms

pb.wtf



Скачать Снежная королева 2: Перезаморозка через торрент http://i66.fastpic.ru/big/2015/0129/76/76d339551364d01a4791ea00e459fe76.jpg Скачать фильм Снежная королева 2: Перезаморозка через торрент бесплантно в хорошем качестве Описание: Тщеславный тролль Орм давно мечтает о лаврах героя, и наконец получает этот шанс: северный ветер грозит миру вечной зимой и ... 9.4 10 40
Торрент: Зарегистрирован [2015-01-28 21:35] · скачан: 1 816 раз
Статус: √ проверено
Размер: 1.37 GB
Как cкачать? Как скачать Снежная королева 2: Перезаморозка через торрент | qTorrent

% Раздел Тема Автор DL S | L
Наши мультфильмы [ 2.14 GB ] Снежная королева 2: Перезаморозка [2014 мультфильм BDRip-AVC] potroks Скачать
3 | 0
Наши мультфильмы [ 1.43 GB ] Снежная королева 2: Перезаморозка [2014 мультфильм BDRip Оригинал Twi7ter Скачать
1 | 0
3D Мультфильмы [ 4.83 GB ] Снежная королева 2: Перезаморозка в 3Д / The Snow Queen: Magic Of The Ice Mirror 3D [2014 BDrip 1080p] DUB Анаглиф slaventi-69 Скачать
1 | 0
3D Мультфильмы [ 9.24 GB ] Снежная королева 2: Перезаморозка в 3Д / The Snow Queen: Magic Of The Ice Mirror 3D [2014 BDrip 1080p] DUB OverUnder / Вертикальная стереопара serega768 Скачать
1 | 0
Наши мультфильмы [ 1.43 GB ] Снежная королева 2: Перезаморозка [2014 Россия мультфильм WEB-DLRip-AVC] White Smoke Скачать
1 | 0
T Наши Мультфильмы (HD, WEB-DL 720p, 1080p) [ 2.41 GB ] Снежная королева 2: Перезаморозка [2014 мультфильм WEB-DL 720p] Anonymous Скачать
1 | 0
Наши Мультфильмы (HD, WEB-DL 720p, 1080p) [ 2.58 GB ] Снежная королева 2: Перезаморозка [2014 мультфильм WEB-DL ] Anonymous Скачать
3 | 0

28-11-2019 20:33  

Отключить всю рекламу на сайте

30-01-2015 08:03 Снежная королева 2: Перезаморозка Скачать торрент  

Качество звука отлично,картинка тоже yes yes Но сюжет не очень,первая была лучше.Оценка 6 из 10!pb.wtf



14-06-2015 11:54 Снежная королева 2: Перезаморозка Скачать торрент  

yespb.wtf



    Дорогой пользователь! Огромная просьба, поблагодарите релизера, оцените раздачу и оставьте свои комментарий, если Вы скачали Снежная королева 2: Перезаморозка через торрент бесплатно! Внесите свою лепту в развитие PiratBit!
    Комментировать посты могут только пользователи прошедшие не сложную регистрацию
    Показать сообщения:    

    Снежная королева 2: Перезаморозка через торрент
    Скачать бесплатно Снежная королева 2: Перезаморозка
    Снежная королева 2: Перезаморозка скачать торрент
    Снежная королева 2: Перезаморозка смотреть онлайн
    Cкачать фильм Снежная королева 2: Перезаморозка бесплатно
    Снежная королева 2: Перезаморозка скачать торрент в хорошем качестве
    Снежная королева 2: Перезаморозка смотреть онлайн бесплатно в хорошем качестве


    Вы не можете начинать темы
    Вы не можете отвечать на сообщения
    Вы не можете редактировать свои сообщения
    Вы не можете удалять свои сообщения
    Вы не можете голосовать в опросах
    Вы не можете прикреплять файлы к сообщениям
    Вы можете скачивать файлы