Ссылка на приватное зеркало всего за 1$. Внимание количество ограничено!!!

iTunes

1+1

iTunes

мы

WEB-DL

1

iTunes

Чернобыль

iTunes

Ральф против интернета

Лицензия

ПШазам

Лицензия

Оно 2

Лицензия

30
pack

Вам бонус

ВАЖНО

!!Акция!!

Alien_RageХит недели

RePack

Resident Evil 21

ИГРА 18+

pack

RePack

jed

!!Акция!!

Alien_Rage

RePack

fifa19

RePack

Assassins Creed: Odyssey

RePack

NEED FOR SPEED™ PAYBACK

3 сезон

9 сезон

Бесстыжие 9 сезон

Все сериалы

все сериалы на PB.wtf

RePack

FAR CRY 5
Ребята, катастрофически не хватает 1900р. для оплаты серверов за Октябрь (всвязи с блокировками трафик упал в 3 раза), 1-2р., выручайте.
  

Ходячие мертвецы / The Walking Dead / Сезон: 5 / Серии 1-10 из 16 (Эрнест Р. Дикерсон) [2014, США, ужасы, триллер, драма, HDTVRip) - Kerob pb.wtf

Ходячие мертвецы через торрент pb.wtf

Размер: 4.56 GB | Добавлен: 4 года 9 мес. назад | Торрент скачан:85 раз
Скачать  

29-01-2015 05:34 Ходячие мертвецы Скачать торрент  



☦ ☠ ХОДЯЧИЕ МЕРТВЕЦЫ ☠ ☦
Информация о фильме:

Название: Ходячие мертвецы

Оригинальное название: The Walking Dead

Год выхода: 2014

Жанр: ужасы, триллер, драма, приключения

Режиссер: Эрнест Р. Дикерсон, Билл Джирхарт, Гай Ферленд

В ролях: Эндрю Линкольн, Сара Уэйн Кэллис, Лори Холден, Стивен Юн, Чендлер Риггз, Норман Ридус, Айрон Э. Синглтон, Мелисса Сюзанн МакБрайд, Лорен Коэн, Джон Бернтал и др.


Описание фильма:

Сериал рассказывает историю жизни семьи шерифа после того, как «зомби» — эпидемия апокалиптических масштабов захлестнула земной шар. Шериф Рик Граймс путешествует со своей семьей и небольшой группой выживших в поисках безопасного места для жизни. Но постоянный страх смерти каждый день приносит тяжелые потери, заставляя героев почувствовать глубины человеческой жестокости. Рик пытается спасти свою семью, и открывает для себя, что всепоглощающий страх тех, кто выжил, может быть опаснее бессмысленных мертвецов, бродящих по земле.



Страна: США

Продолжительность: ~ 00:43:00 серия

Перевод: Любительский одноголосый закадровый - Kerob




Информация о файле:

Кодек: XviD

Формат: AVI

Качество: HDTVRip

Видео: ~ 1482 kbps, 720x400, 23,976 fps

Аудио Rus: mp3, 48.0 KHz, 2 ch, 192 kbps
Внимание! Раздача ведётся путём добавления новых серий; при каждом добавлении создаётся новый торрент. Чтобы начать докачку новой серии, пользователям необходимо сделать следующее:
(1) остановить скачивание,
(2) удалить старый торрент у себя из клиента (старые серии удалять не надо),
(3) скачать новый торрент и запустить его у себя в клиенте вместо старого, при этом указать клиенту путь в старую папку куда и должно происходить скачивание новых серий.
Ваш клиент при этом должен произвести хеширование (проверку) старой папки (если не производит сам - помогите ему сделать это), и будет докачивать только те серии которых у вас ещё нет. Старые серии при этом не удаляются, а продолжают раздаваться!
Eсли вы уже удалили старые серии, то предотвратить повторную закачку старых серий можно, отжав галочку в соответсвующих местах при запуске нового торрента. По возможности, желательно не удалять старые серии как можно дольше чтобы релизёр не столько продолжал раздавать старые серии, а смог сконцентрироваться на новых.
5x01 Убежища нет
No Sanctuary
12 октября 2014

5x02 Незнакомцы
Strangers
19 октября 2014

5x03 Четыре стены и крыша
Four Walls and a Roof
26 октября 2014

5x04 Слэбтаун
Slabtown
2 ноября 2014

5x05 Самообслуживание
Self Help
9 ноября 2014

5x06 Поглощенные
Consumed
16 ноября 2014

5x07 Обман
Crossed
23 ноября 2014

5x08 Кода
Coda
30 ноября 2014

5x09 What Happened and What's Going On
8 февраля 2015


5x10 Them
15 февраля 2015


5x11 The Distance
22 февраля 2015

5x12 Remember
1 марта 2015

5x13 Серия 13
8 марта 2015

5x14 Серия 14
15 марта 2015

5x15 Серия 15
22 марта 2015

5x16 Серия 16
29 марта 2015





Общее
Полное имя : D:\uTorrent\Ходячие Мертвецы. Пятый сезон\The.Walking.Dead.S05E01.HDTVRip.Kerob.avi
Формат : AVI
Формат/Информация : Audio Video Interleave
Размер файла : 535 Мбайт
Длительность : 44 м.
Общий поток : 1684 Кбит/сек
Программа кодирования : VirtualDubMod 1.5.10.2 (build 2540/release)
Библиотека кодирования : VirtualDubMod build 2540/release

Видео
Идентификатор : 0
Формат : xvid
Идентификатор кодека : xvid
Длительность : 44 м.
Битрейт : 1482 Кбит/сек
Ширина : 720 пикселей
Высота : 400 пикселей
Соотношение сторон : 16:9
Частота кадров : 23,976 кадра/сек
Бит/(Пиксели*Кадры) : 0.215
Размер потока : 471 Мбайт (88%)

Аудио
Идентификатор : 1
Формат : MPEG Audio
Версия формата : Version 1
Профиль формата : Layer 3
Режим : Joint stereo
Идентификатор кодека : 55
Идентификатор кодека/Подсказка : MP3
Длительность : 44 м.
Вид битрейта : Постоянный
Битрейт : 192 Кбит/сек
Каналы : 2 канала
Частота : 48,0 КГц
Метод сжатия : С потерями
Размер потока : 61,0 Мбайт (11%)
Выравнивание : Соединение по промежуткам
Длительность промежутка : 42 мс. (1,00 видеокадр)
Время предзагрузки промежутка : 504 мс.
Торрент обновлен! Добавленна 10 серия сезона! Просьба перекачайте торрент! Приятного просмотра!pb.wtf



Скачать Ходячие мертвецы через торрент http://i64.fastpic.ru/big/2014/1013/24/7ae8ccf78418e9709462ca6d72895324.png Скачать фильм Ходячие мертвецы через торрент бесплантно в хорошем качестве Описание фильма:Сериал рассказывает историю жизни семьи шерифа после того, как «зомби» — эпидемия апокалиптических масштабов захлестнула ... 9.7 10 31
Торрент: Зарегистрирован [2015-02-16 11:12] · скачан: 85 раз
Статус: √ проверено
Размер: 4.56 GB
Как cкачать? Как скачать Ходячие мертвецы через торрент | qTorrent



Последний раз редактировалось: _Fenixx_ни мужик ни баба (2015-02-16 11:12), всего редактировалось 3 раз(а)

28-11-2019 20:33  

Отключить всю рекламу на сайте

29-01-2015 19:33 Ходячие мертвецы Скачать торрент  

Внатуре зачем???pb.wtf



09-02-2015 12:50 Ходячие мертвецы Скачать торрент  

Я лучше 22.00 подожду, но все равно спасибо.pb.wtf



09-02-2015 14:45 Ходячие мертвецы Скачать торрент  

Как продолжение то народ?)pb.wtf



17-02-2015 19:00 Ходячие мертвецы Скачать торрент  

Самый отвратительный перевод!pb.wtf



    Дорогой пользователь! Огромная просьба, поблагодарите релизера, оцените раздачу и оставьте свои комментарий, если Вы скачали Ходячие мертвецы через торрент бесплатно! Внесите свою лепту в развитие PiratBit!
    Комментировать посты могут только пользователи прошедшие не сложную регистрацию
    Показать сообщения:    

    Ходячие мертвецы через торрент
    Скачать бесплатно Ходячие мертвецы
    Ходячие мертвецы скачать торрент
    Ходячие мертвецы смотреть онлайн
    Cкачать фильм Ходячие мертвецы бесплатно
    Ходячие мертвецы скачать торрент в хорошем качестве
    Ходячие мертвецы смотреть онлайн бесплатно в хорошем качестве


    Вы не можете начинать темы
    Вы не можете отвечать на сообщения
    Вы не можете редактировать свои сообщения
    Вы не можете удалять свои сообщения
    Вы не можете голосовать в опросах
    Вы не можете прикреплять файлы к сообщениям
    Вы можете скачивать файлы