Ссылка на приватное зеркало нашего сайта всего за 1$. Внимание количество ограничено!!!

2 сезон

iTunes

1 сезон

1

2 сезон

2 сезон

iTunes

1 сезон

RePack

30

Ultimate

ВАЖНО

ИГРА 18+

pack

RePack

MK11
pack

Забери бонус

RePack

jed

!!Акция!!

Alien_Rage

RePack

fifa19

RePack

Assassins Creed: Odyssey

RePack

NEED FOR SPEED™ PAYBACK

4 сезон

9 сезон

Бесстыжие 9 сезон

Все сериалы

все сериалы на PB.wtf

RePack

FAR CRY 5
  

Тёмный ангел / Линч / Lynch / Сезон: 1 / Серии 1-13 (13)(Фелипе Мартинес, Риккардо Габриелли Р.) [2012 г., драма, криминал, комедия, HDTVRip 720p,] MVO(Домашний)+Original,Sub pb.wtf

Тёмный ангел через торрент pb.wtf

Размер: 21.23 GB | Добавлен: 5 лет 9 мес. назад | Торрент скачан:25 раз
Скачать  

29-01-2015 07:02 Тёмный ангел Скачать торрент  

Тёмный ангел / Линч / Lynch
Год выпуска: 2012
Страна: Колумбия
Жанр: драма, криминал, комедия
Продолжительность: 00:55:00
Перевод: Профессиональный многоголосый(Домашний)
Субтитры: Russian (Forced), Russian (Виктория IVK)

Режиссер: Фелипе Мартинес, Риккардо Габриелли Р.



В ролях: Наталия Орейро, Хорхе Перугоррия, Алехандро Кальва, Татан Рамирез, Марсела Карвахаль, Хорхе Монтерроса, Паула Кастаньо, Габриела де ла Гарса, Густаво Корредор, Луис Фернандо Бооркес

Описание: Сюжет этого сериала рассказывает о похоронном бюро, владельцы которого семья «LYNCH» за большие деньги, фальсифицирует смерть людей, которые на самом деле живы, но которые, по какой-то причине добиваются того, чтобы все вокруг поверили, что они перестали существовать.

Качество: HDTVRip 720p
Формат: MKV
Видео кодек: AVC
Аудио кодек: AC3
Видео: 1280x720 (16:9), 30.303 fps, 4 018 Kbps (0.128 bit/pixel)
Аудио#1: 48.0 KHz, 2 ch, 192 Kbps, CBR (Russian)
Аудио#2: 48.0 KHz, 2 ch, 192 Kbps, CBR (Spanish)
Релиз от: by HPotter
Temporada 1, Episodes:
01: "Un Fantasma Que Resucita - Воскресший призрак"
02: "Lanzandose al Agua - Бросаясь в воду"
03: "Llorando Sobre la Leche Derramada - Плач над пролитым молоком"
04: "La Causa - Дело"
05: "Un Cambio Violent - Неистовая перемена"
06: "San Valentín Ha Muerto - Святой Валентин умер"
07: "Madre No Hay Sino Dos - Мать не одна, их двое"
08: "No lo Tomes Personal - Не принимай близко к сердцу"
09: "Alguien Muere en la Víspera - Кто-то умрет накануне"
10: "Apuestas de Familia - Семейные ставки"
11: "Hasta la Vista, Baby! - До встречи, детка!"
12: "Pagando Saldos - Расплата по счетам"
13: "Un Final Casi Feliz - Почти счастливый финал"
Внимание! Раздача ведётся путём добавления новых серий
Внимание! Раздача ведётся путём добавления новых серий; при каждом добавлении создётся новый торрент.
Чтобы начать докачку новой серии, пользователям необходимо сделать следующее:
1) остановить скачивание
2) удалить старый торрент у себя из клиента (старые серии удалять не надо)
3) скачать новый торрент и запустить его у себя в клиенте вместо старого, при этом указать клиенту путь в старую папку куда и должно происходить скачивание новых серий.
Ваш клиент при этом должен произвести хеширование (проверку) старой папки (если не производит сам - помогите ему сделать это), и будет докачивать только те серии которых у вас ещё нет. Старые серии при этом не удаляются, а продолжают раздаваться!
Eсли вы уже удалили старые серии, то предотвратить повторную закачку старых серий можно, отжав галочку в соответствовавших местах при запуске нового торрента.
скриншот   скриншот   скриншот   скриншот   скриншот   скриншот  

General
Unique ID : 188268090542642128122797170108696208350 (0x8DA31D854673978D801B41FE0A0DA3DE)
Complete name : G:\Сериалы\Тёмный ангел Lynch\Lynch.S01.720p.HDTV.Rus.Spa.HDCLUB\Lynch.S01E01.Un.Fantasma.Que.Resucita.720p.HDTV.Rus.Spa.HDCLUB.mkv
Format : Matroska
Format version : Version 4 / Version 2
File size : 1.50 GiB
Duration : 53mn 18s
Overall bit rate : 4 027 Kbps
Encoded date : UTC 2015-01-13 07:52:08
Writing application : mkvmerge v7.5.0 ('Glass Culture') 64bit built on Jan 4 2015 16:48:44
Writing library : libebml v1.3.1 + libmatroska v1.4.2
_STATISTICS_WRITING_APP : mkvmerge v7.5.0 ('Glass Culture') 64bit built on Jan 4 2015 16:48:44
_STATISTICS_WRITING_DATE_UT : 2015-01-13 07:52:08
_STATISTICS_TAGS : BPS DURATION NUMBER_OF_FRAMES NUMBER_OF_BYTES
DURATION : 00:50:41.770000000
NUMBER_OF_FRAMES : 10
NUMBER_OF_BYTES : 710

Video
ID : 1
Format : AVC
Format/Info : Advanced Video Codec
Format profile : High@L3.2
Format settings, CABAC : Yes
Format settings, ReFrames : 2 frames
Codec ID : V_MPEG4/ISO/AVC
Duration : 53mn 18s
Bit rate mode : Constant
Bit rate : 3 563 Kbps
Nominal bit rate : 4 018 Kbps
Width : 1 280 pixels
Height : 720 pixels
Display aspect ratio : 16:9
Frame rate mode : Constant
Frame rate : 29.970 fps
Standard : NTSC
Color space : YUV
Chroma subsampling : 4:2:0
Bit depth : 8 bits
Scan type : Progressive
Bits/(Pixel*Frame) : 0.129
Stream size : 1.33 GiB (88%)
Title : Lynch. Temporada 1 Episode 01 "Un Fantasma Que Resucita" SPA
Language : Spanish
Default : Yes
Forced : No
Color primaries : BT.709
Transfer characteristics : BT.709
Matrix coefficients : BT.709
Color range : Limited
_STATISTICS_WRITING_APP : mkvmerge v7.5.0 ('Glass Culture') 64bit built on Jan 4 2015 16:48:44
_STATISTICS_WRITING_DATE_UT : 2015-01-13 07:52:08
_STATISTICS_TAGS : BPS DURATION NUMBER_OF_FRAMES NUMBER_OF_BYTES
DURATION : 00:53:18.629000000
NUMBER_OF_FRAMES : 95863
NUMBER_OF_BYTES : 1455477273

Audio #1
ID : 2
Format : AC-3
Format/Info : Audio Coding 3
Mode extension : CM (complete main)
Format settings, Endianness : Big
Codec ID : A_AC3
Duration : 53mn 18s
Bit rate mode : Constant
Bit rate : 192 Kbps
Channel(s) : 2 channels
Channel positions : Front: L R
Sampling rate : 48.0 KHz
Bit depth : 16 bits
Compression mode : Lossy
Delay relative to video : -33ms
Stream size : 73.2 MiB (5%)
Title : AC3 2.0 @ 192 kbps - Домашний
Language : Russian
Default : Yes
Forced : No

Audio #2
ID : 3
Format : AC-3
Format/Info : Audio Coding 3
Mode extension : CM (complete main)
Format settings, Endianness : Big
Codec ID : A_AC3
Duration : 53mn 18s
Bit rate mode : Constant
Bit rate : 192 Kbps
Channel(s) : 2 channels
Channel positions : Front: L R
Sampling rate : 48.0 KHz
Bit depth : 16 bits
Compression mode : Lossy
Delay relative to video : -33ms
Stream size : 73.2 MiB (5%)
Title : AC3 2.0 @ 192 kbps
Language : Spanish
Default : No
Forced : No

Text #1
ID : 4
Format : ASS
Codec ID : S_TEXT/ASS
Codec ID/Info : Advanced Sub Station Alpha
Compression mode : Lossless
Title : Forced
Language : Russian
Default : Yes
Forced : No

Text #2
ID : 5
Format : ASS
Codec ID : S_TEXT/ASS
Codec ID/Info : Advanced Sub Station Alpha
Compression mode : Lossless
Title : Виктория IVK - ASS
Language : Russian
Default : No
Forced : No

pb.wtf



Скачать Тёмный ангел через торрент http://pic.kartinco.top/images/8/kagl9.jpg Скачать фильм Тёмный ангел через торрент бесплантно в хорошем качестве Описание: Сюжет этого сериала рассказывает о похоронном бюро, владельцы которого семья «LYNCH» за большие деньги, фальсифицирует смерть ... 9 10 7
Торрент: Зарегистрирован [2015-02-02 12:17] · скачан: 25 раз
Статус: √ проверено
Размер: 21.23 GB
Как cкачать? Как скачать Тёмный ангел через торрент | qTorrent



Последний раз редактировалось: Assasinca (2015-02-02 12:16), всего редактировалось 3 раз(а)

28-11-2019 20:33  

Отключить всю рекламу на сайте

29-01-2015 07:33 Тёмный ангел Скачать торрент  

Ну и где раздача?pb.wtf



29-01-2015 10:56 Тёмный ангел Скачать торрент  

Нормальный сериал. Всем поклонникам творчества Наталии Орейро рекомендуется к просмотру.pb.wtf



06-02-2015 15:10 Тёмный ангел Скачать торрент  

Остальные 2 сезона с этим переводом будут?pb.wtf



    Дорогой пользователь! Огромная просьба, поблагодарите релизера, оцените раздачу и оставьте свои комментарий, если Вы скачали Тёмный ангел через торрент бесплатно! Внесите свою лепту в развитие PiratBit!
    Комментировать посты могут только пользователи прошедшие не сложную регистрацию
    Показать сообщения:    

    Тёмный ангел через торрент
    Скачать бесплатно Тёмный ангел
    Тёмный ангел скачать торрент
    Тёмный ангел смотреть онлайн
    Cкачать фильм Тёмный ангел бесплатно
    Тёмный ангел скачать торрент в хорошем качестве
    Тёмный ангел смотреть онлайн бесплатно в хорошем качестве


    Вы не можете начинать темы
    Вы не можете отвечать на сообщения
    Вы не можете редактировать свои сообщения
    Вы не можете удалять свои сообщения
    Вы не можете голосовать в опросах
    Вы не можете прикреплять файлы к сообщениям
    Вы можете скачивать файлы