Ссылка на приватное зеркало нашего сайта всего за 1$. Внимание количество ограничено!!!

2 сезон

iTunes

1 сезон

1

iTunes

iTunes

iTunes

1 сезон

RePack

30

ИГРА 18+

pack

ВАЖНО

!!Акция!!

Alien_RageХит недели

RePack

MK11
pack

Забери бонус

RePack

jed

!!Акция!!

Alien_Rage

RePack

fifa19

RePack

Assassins Creed: Odyssey

RePack

NEED FOR SPEED™ PAYBACK

4 сезон

9 сезон

Бесстыжие 9 сезон

Все сериалы

все сериалы на PB.wtf

RePack

FAR CRY 5
  

Пик Данте / Dante's Peak (Роджер Дональдсон) [1997, боевик, триллер, приключения, BDRip 720p] MVO, 2 x DVO, AVO pb.wtf

Пик Данте через торрент pb.wtf

Размер: 5.51 GB | Добавлен: 5 лет 9 мес. назад | Торрент скачан:65 раз
Скачать  

29-01-2015 14:48 Пик Данте Скачать торрент  

Пик Данте / Dante's Peak

Год выпуска: 1997
Страна: США
Жанр: боевик, триллер, приключения
Продолжительность: 01:48:28
Перевод: профессиональный многоголосый, профессиональный двухголосый, авторский
Субтитры: русские, английские

Режиссёр: Роджер Дональдсон

В ролях: Пирс Броснан, Линда Хэмилтон, Чарльз Хэллахан, Джейми Рене Смит, Джереми Фоули, Элизабет Хоффман, Грант Хеслов, Кирк Тратнер, Арабелла Филд, Ци Ма

Описание: Учёный-вулканолог Гарри Далтон, потерявший жену во время извержения вулкана, отправляется в маленький городок Пик Данте, расположенный на северо-западном побережье для того, чтобы заняться там рутинной работой - исследованием сейсмической ситуации. Он вскоре обнаруживает тревожные признаки надвигающейся катастрофы, грозящей обернуться концом света. Правительство не обращает внимания на его грозные предупреждения, и лишь мэр городка Рэчел Уэндо осознает весь ужас положения и спешит к нему на помощь...



Качество: BDRip 720p Сравнение с исходником
Формат: MKV
Видео кодек: H.264
Видео: 5660 Кбит/с, 1280x542, 23.976 кадра/с, 0.340 bpp
Аудио 1: русский, AC3, 192 kbps, 2 ch, 48 kHz [профессиональный многоголосый, ОРТ]
Аудио 2: русский, AC3, 192 kbps, 2 ch, 48 kHz [профессиональный двухголосый, Blu-ray EUR]
Аудио 3: русский, AC3, 192 kbps, 2 ch, 48 kHz [профессиональный двухголосый, Universal Channel]
Аудио 4: русский, AC3, 448 kbps, 6 ch, 48 kHz [авторский, Юрий Живов]
Аудио 5: английский, AC3, 448 kbps, 6 ch, 48 kHz [оригинал]

Имеются неименованные главы/чаптеры.
Общее
Уникальный идентификатор : 176804559516490198521951609829886417277 (0x850351CDE0CA99D89C2E8946976A597D)
Полное имя : D:VideoPik Dante.1997.BDRip.720p.mkv
Формат : Matroska
Версия формата : Version 4 / Version 2
Размер файла : 5,51 Гбайт
Продолжительность : 1 ч. 48 м.
Общий поток : 7277 Кбит/сек
Дата кодирования : UTC 2015-01-29 13:24:41
Программа кодирования : mkvmerge v7.5.0 ('Glass Culture') 64bit built on Jan 4 2015 16:48:44
Библиотека кодирования : libebml v1.3.1 + libmatroska v1.4.2
DURATION : 01:36:48.278000000
NUMBER_OF_FRAMES : 1231
NUMBER_OF_BYTES : 42370
_STATISTICS_WRITING_APP : mkvmerge v7.5.0 ('Glass Culture') 64bit built on Jan 4 2015 16:48:44
_STATISTICS_WRITING_DATE_UTC : 2015-01-29 13:24:41
_STATISTICS_TAGS : BPS DURATION NUMBER_OF_FRAMES NUMBER_OF_BYTES

Видео
Идентификатор : 1
Формат : AVC
Формат/Информация : Advanced Video Codec
Профиль формата : High@L4.1
Параметр CABAC формата : Да
Параметр ReFrames формата : 9 кадров
Идентификатор кодека : V_MPEG4/ISO/AVC
Продолжительность : 1 ч. 48 м.
Битрейт : 5660 Кбит/сек
Ширина : 1280 пикселей
Высота : 542 пикселя
Соотношение сторон : 2,35:1
Режим частоты кадров : Постоянный
Частота кадров : 23,976 кадра/сек
Цветовое пространство : YUV
Субдискретизация насыщенности : 4:2:0
Битовая глубина : 8 бит
Тип развёртки : Прогрессивная
Бит/(Пиксели*Кадры) : 0.340
Размер потока : 4,29 Гбайт (78%)
Заголовок : BDRip -- STarankov
Библиотека кодирования : x264 core 142 r2431 ac76440
Настройки программы : cabac=1 / ref=9 / deblock=1:-1:-1 / analyse=0x3:0x113 / me=umh / subme=10 / psy=1 / psy_rd=1.00:0.15 / mixed_ref=1 / me_range=32 / chroma_me=1 / trellis=2 / 8x8dct=1 / cqm=0 / deadzone=21,11 / fast_pskip=1 / chroma_qp_offset=-3 / threads=6 / lookahead_threads=1 / sliced_threads=0 / nr=0 / decimate=1 / interlaced=0 / bluray_compat=0 / constrained_intra=0 / bframes=8 / b_pyramid=2 / b_adapt=2 / b_bias=0 / direct=3 / weightb=1 / open_gop=0 / weightp=2 / keyint=230 / keyint_min=23 / scenecut=40 / intra_refresh=0 / rc_lookahead=40 / rc=crf / mbtree=0 / crf=18.0 / qcomp=0.60 / qpmin=0 / qpmax=69 / qpstep=4 / vbv_maxrate=40000 / vbv_bufsize=50000 / crf_max=0.0 / nal_hrd=none / filler=0 / ip_ratio=1.40 / pb_ratio=1.30 / aq=1:1.00
Язык : English
Default : Да
Forced : Нет
DURATION : 01:48:28.085000000
NUMBER_OF_FRAMES : 156038
NUMBER_OF_BYTES : 4719874964
_STATISTICS_WRITING_APP : mkvmerge v7.5.0 ('Glass Culture') 64bit built on Jan 4 2015 16:48:44
_STATISTICS_WRITING_DATE_UTC : 2015-01-29 13:24:41
_STATISTICS_TAGS : BPS DURATION NUMBER_OF_FRAMES NUMBER_OF_BYTES

Аудио #1
Идентификатор : 2
Формат : AC-3
Формат/Информация : Audio Coding 3
Расширение режима : CM (complete main)
Параметр Endianness формата : Big
Идентификатор кодека : A_AC3
Продолжительность : 1 ч. 48 м.
Вид битрейта : Постоянный
Битрейт : 192 Кбит/сек
Каналы : 2 канала
Расположение каналов : Front: L R
Частота : 48,0 КГц
Битовая глубина : 16 бит
Метод сжатия : С потерями
Размер потока : 149 Мбайт (3%)
Заголовок : MVO (OPT)
Язык : Russian
Default : Да
Forced : Нет

Аудио #2
Идентификатор : 3
Формат : AC-3
Формат/Информация : Audio Coding 3
Расширение режима : CM (complete main)
Параметр Endianness формата : Big
Идентификатор кодека : A_AC3
Продолжительность : 1 ч. 48 м.
Вид битрейта : Постоянный
Битрейт : 192 Кбит/сек
Каналы : 2 канала
Расположение каналов : Front: L R
Частота : 48,0 КГц
Битовая глубина : 16 бит
Метод сжатия : С потерями
Размер потока : 149 Мбайт (3%)
Заголовок : DVO (Blu-ray EUR)
Язык : Russian
Default : Нет
Forced : Нет

Аудио #3
Идентификатор : 4
Формат : AC-3
Формат/Информация : Audio Coding 3
Расширение режима : CM (complete main)
Параметр Endianness формата : Big
Идентификатор кодека : A_AC3
Продолжительность : 1 ч. 48 м.
Вид битрейта : Постоянный
Битрейт : 192 Кбит/сек
Каналы : 2 канала
Расположение каналов : Front: L R
Частота : 48,0 КГц
Битовая глубина : 16 бит
Метод сжатия : С потерями
Размер потока : 149 Мбайт (3%)
Заголовок : DVO (Universal Channel)
Язык : Russian
Default : Нет
Forced : Нет

Аудио #4
Идентификатор : 5
Формат : AC-3
Формат/Информация : Audio Coding 3
Расширение режима : CM (complete main)
Параметр Endianness формата : Big
Идентификатор кодека : A_AC3
Продолжительность : 1 ч. 48 м.
Вид битрейта : Постоянный
Битрейт : 448 Кбит/сек
Каналы : 6 каналов
Расположение каналов : Front: L C R, Side: L R, LFE
Частота : 48,0 КГц
Битовая глубина : 16 бит
Метод сжатия : С потерями
Размер потока : 348 Мбайт (6%)
Заголовок : AVO (Юрий Живов)
Язык : Russian
Default : Нет
Forced : Нет

Аудио #5
Идентификатор : 6
Формат : AC-3
Формат/Информация : Audio Coding 3
Расширение режима : CM (complete main)
Параметр Endianness формата : Big
Идентификатор кодека : A_AC3
Продолжительность : 1 ч. 48 м.
Вид битрейта : Постоянный
Битрейт : 448 Кбит/сек
Каналы : 6 каналов
Расположение каналов : Front: L C R, Side: L R, LFE
Частота : 48,0 КГц
Битовая глубина : 16 бит
Метод сжатия : С потерями
Размер потока : 348 Мбайт (6%)
Заголовок : Original
Язык : English
Default : Нет
Forced : Нет

Текст #1
Идентификатор : 7
Формат : UTF-8
Идентификатор кодека : S_TEXT/UTF8
Идентификатор кодека/Информация : UTF-8 Plain Text
Заголовок : русский
Язык : Russian
Default : Нет
Forced : Нет

Текст #2
Идентификатор : 8
Формат : UTF-8
Идентификатор кодека : S_TEXT/UTF8
Идентификатор кодека/Информация : UTF-8 Plain Text
Заголовок : английский
Default : Нет
Forced : Нет

Меню
00:00:00.000 : :Chapter 1
00:03:29.709 : :Chapter 2
00:05:12.312 : :Chapter 3
00:06:47.949 : :Chapter 4
00:10:38.679 : :Chapter 5
00:12:00.594 : :Chapter 6
00:14:31.954 : :Chapter 7
00:18:47.668 : :Chapter 8
00:20:35.192 : :Chapter 9
00:25:56.763 : :Chapter 10
00:27:31.608 : :Chapter 11
00:29:12.542 : :Chapter 12
00:30:54.477 : :Chapter 13
00:34:41.829 : :Chapter 14
00:36:37.236 : :Chapter 15
00:38:40.526 : :Chapter 16
00:44:36.090 : :Chapter 17
00:46:57.231 : :Chapter 18
00:50:48.045 : :Chapter 19
00:52:10.961 : :Chapter 20
00:54:06.993 : :Chapter 21
00:55:20.317 : :Chapter 22
01:01:26.224 : :Chapter 23
01:04:33.452 : :Chapter 24
01:06:03.250 : :Chapter 25
01:08:52.545 : :Chapter 26
01:11:32.705 : :Chapter 27
01:14:56.325 : :Chapter 28
01:17:03.577 : :Chapter 29
01:18:47.431 : :Chapter 30
01:20:56.977 : :Chapter 31
01:23:03.395 : :Chapter 32
01:27:34.290 : :Chapter 33
01:29:38.122 : :Chapter 34
01:32:31.128 : :Chapter 35
01:35:49.493 : :Chapter 36
01:38:12.386 : :Chapter 37
01:40:46.040 : :Chapter 38
pb.wtf



Скачать Пик Данте через торрент http://i59.fastpic.ru/big/2015/0129/8e/96714e166c1d6b5a9f8cc5a08cd9548e.jpg Скачать фильм Пик Данте через торрент бесплантно в хорошем качестве Описание: Учёный-вулканолог Гарри Далтон, потерявший жену во время извержения вулкана, отправляется в маленький городок Пик Данте, ... 10 10 8
Торрент: Зарегистрирован [2015-01-29 14:48] · скачан: 65 раз
Статус: √ проверено
Размер: 5.51 GB
Как cкачать? Как скачать Пик Данте через торрент | qTorrent



Последний раз редактировалось: msltel (2015-01-30 09:48), всего редактировалось 1 раз

28-11-2019 20:33  

Отключить всю рекламу на сайте

29-01-2015 15:58 Пик Данте Скачать торрент  

старый фильм но по смотреть стоитpb.wtf



    Дорогой пользователь! Огромная просьба, поблагодарите релизера, оцените раздачу и оставьте свои комментарий, если Вы скачали Пик Данте через торрент бесплатно! Внесите свою лепту в развитие PiratBit!
    Комментировать посты могут только пользователи прошедшие не сложную регистрацию
    Показать сообщения:    

    Пик Данте через торрент
    Скачать бесплатно Пик Данте
    Пик Данте скачать торрент
    Пик Данте смотреть онлайн
    Cкачать фильм Пик Данте бесплатно
    Пик Данте скачать торрент в хорошем качестве
    Пик Данте смотреть онлайн бесплатно в хорошем качестве


    Вы не можете начинать темы
    Вы не можете отвечать на сообщения
    Вы не можете редактировать свои сообщения
    Вы не можете удалять свои сообщения
    Вы не можете голосовать в опросах
    Вы не можете прикреплять файлы к сообщениям
    Вы можете скачивать файлы