Ссылка на приватное зеркало нашего сайта всего за 1$. Внимание количество ограничено!!!

2 сезон

iTunes

1 сезон

1

iTunes

iTunes

iTunes

1 сезон

RePack

30

ИГРА 18+

pack

ВАЖНО

!!Акция!!

Alien_RageХит недели

RePack

MK11
pack

Забери бонус

RePack

jed

!!Акция!!

Alien_Rage

RePack

fifa19

RePack

Assassins Creed: Odyssey

RePack

NEED FOR SPEED™ PAYBACK

4 сезон

9 сезон

Бесстыжие 9 сезон

Все сериалы

все сериалы на PB.wtf

RePack

FAR CRY 5
  

Сумеречная страна / Skumringslandet (Пауль Магнус Лундё ) [2014, фэнтези, криминал, детектив, HDRip, Любительский (двухголосый) [den904, DeadSno] pb.wtf

Сумеречная страна через торрент pb.wtf

Размер: 1.47 GB | Добавлен: 5 лет 8 мес. назад | Торрент скачан:491 раз
Скачать  

29-01-2015 20:29 Сумеречная страна Скачать торрент  

Сумеречная страна / Skumringslandet

Год выпуска: 2014
Страна: Норвегия
Жанр: фэнтези, криминал, детектив
Продолжительность: 01:22:05
Перевод: Любительский (двухголосый) [den904, DeadSno]
Режиссер: Пауль Магнус Лундё
В ролях: Ларс Могенс Осе (Chef), Томас Аске Берг, Ким Бодния (Bergtor), Юэн Бремнер (Rabbi Dunbar), Gerd Julie Fjell (Nun), Marianne Mæland Fredbo, Fredrik Finne Halvorsen (Villager), Эспен Хана (The Innkeeper), Jan Håkon Hansen (Villager), Erik Helgesen (Nun / villager), Kristina Knaben Hennestad (Kristine), Кнут Хусебё
Описание:
Расследование преступлений таинственного серийного убийцы, происходящих в горной деревне Норвегии в середине 1300-х.
Рейтинг:

Качество: HDRip
Формат: AVI
Видео кодек: XviD
Аудио кодек:AC3
Видео: XviD, 720x304 (2.35:1), 1859 kbps, 24 fps, 0,383 bpp
Аудио: AC3 / 5.1 / 48 kHz / 448 kbps / 16 bit

Код:

General
Complete name                            : D:\Торенты\The.Veil.of.Twilight.2014.HDRip.CINEMANIA.avi
Format                                   : AVI
Format/Info                              : Audio Video Interleave
File size                                : 1.47 GiB
Duration                                 : 1h 22mn
Overall bit rate                         : 2 571 Kbps
Writing application                      : VirtualDubMod 1.5.10.2 (build 2542/release)
Writing library                          : VirtualDubMod build 2542/release

Video
ID                                       : 0
Format                                   : MPEG-4 Visual
Format profile                           : Advanced Simple@L5
Format settings, BVOP                    : 2
Format settings, QPel                    : No
Format settings, GMC                     : No warppoints
Format settings, Matrix                  : Default (MPEG)
Codec ID                                 : XVID
Codec ID/Hint                            : XviD
Duration                                 : 1h 22mn
Bit rate                                 : 1859 Kbps
Width                                    : 720 pixels
Height                                   : 304 pixels
Display aspect ratio                     : 2.35:1
Frame rate                               : 24.000 fps
Color space                              : YUV
Chroma subsampling                       : 4:2:0
Bit depth                                : 8 bits
Scan type                                : Progressive
Compression mode                         : Lossy
Bits/(Pixel*Frame)                       : 0.383
Stream size                              : 1.15 GiB (78%)
Writing library                          : XviD 1.2.1 (UTC 2008-12-04)

Audio
ID                                       : 1
Format                                   : AC-3
Format/Info                              : Audio Coding 3
Mode extension                           : CM (complete main)
Codec ID                                 : 2000
Duration                                 : 1h 22mn
Bit rate mode                            : Constant
Bit rate                                 : 448 Kbps
Channel(s)                               : 6 channels
Channel positions                        : Front: L C R, Side: L R, LFE
Sampling rate                            : 48.0 KHz
Bit depth                                : 16 bits
Compression mode                         : Lossy
Stream size                              : 263 MiB (17%)
Alignment                                : Split accross interleaves

pb.wtf



Скачать Сумеречная страна через торрент http://i68.fastpic.ru/big/2015/0129/cb/44ca9a1ac428e05839143468193bd8cb.jpg Скачать фильм Сумеречная страна через торрент бесплантно в хорошем качестве Описание: Расследование преступлений таинственного серийного убийцы, происходящих в горной деревне Норвегии в середине ... 9.4 10 14
Торрент: Зарегистрирован [2015-01-29 20:29] · скачан: 491 раз
Статус: T временная
Размер: 1.47 GB
Как cкачать? Как скачать Сумеречная страна через торрент | qTorrent

% Раздел Тема Автор DL S | L
T Фильмы [HD 720p, 1080p] (Звук Cam, VO, DVO) [ 5.72 GB ] Сумеречная страна / Skumringslandet [2014 BDRip 1080p Любительский [den904 DeadSno] Ворон Скачать
1 | 0

28-11-2019 20:33  

Отключить всю рекламу на сайте

30-01-2015 08:56 Сумеречная страна Скачать торрент  

Зарождение уголовного розыска...pb.wtf



    Дорогой пользователь! Огромная просьба, поблагодарите релизера, оцените раздачу и оставьте свои комментарий, если Вы скачали Сумеречная страна через торрент бесплатно! Внесите свою лепту в развитие PiratBit!
    Комментировать посты могут только пользователи прошедшие не сложную регистрацию
    Показать сообщения:    

    Сумеречная страна через торрент
    Скачать бесплатно Сумеречная страна
    Сумеречная страна скачать торрент
    Сумеречная страна смотреть онлайн
    Cкачать фильм Сумеречная страна бесплатно
    Сумеречная страна скачать торрент в хорошем качестве
    Сумеречная страна смотреть онлайн бесплатно в хорошем качестве


    Вы не можете начинать темы
    Вы не можете отвечать на сообщения
    Вы не можете редактировать свои сообщения
    Вы не можете удалять свои сообщения
    Вы не можете голосовать в опросах
    Вы не можете прикреплять файлы к сообщениям
    Вы можете скачивать файлы