Ссылка на приватное зеркало нашего сайта всего за 1$. Внимание количество ограничено!!!

2 сезон

iTunes

1 сезон

1

2 сезон

2 сезон

iTunes

1 сезон

RePack

30

Ultimate

ВАЖНО

ИГРА 18+

pack

RePack

MK11
pack

Забери бонус

RePack

jed

!!Акция!!

Alien_Rage

RePack

fifa19

RePack

Assassins Creed: Odyssey

RePack

NEED FOR SPEED™ PAYBACK

4 сезон

9 сезон

Бесстыжие 9 сезон

Все сериалы

все сериалы на PB.wtf

RePack

FAR CRY 5
  

Очевидное / Transparent / Сезон: 1 / Серии 1-10 из 10 (Джилл Солоуэй / Jill Soloway, Ниша Ганатра / Nisha Ganatra) [2014, США, комедия, WEB-DLRip] DVO [Ozz] pb.wtf

Очевидное через торрент pb.wtf

Размер: 4.83 GB | Добавлен: 5 лет 9 мес. назад | Торрент скачан:19 раз
Скачать  

30-01-2015 04:43 Очевидное Скачать торрент  

Очевидное / Transparent


  • Год выпуска: 2014
  • Страна: США
  • Жанр: комедия
  • Продолжительность: 00:28:43
  • Перевод: Профессиональный (двухголосый) [Ozz]
  • Субтитры: Русские
  • Режиссер: Джилл Солоуэй / Jill Soloway, Ниша Ганатра / Nisha Ganatra
  • В ролях:

    Джеффри Тэмбор (Maura Pfefferman), Габи Хоффманн (Ali Pfefferman), Эми Ландекер (Sarah Pfefferman), Джей Дюпласс (Josh Pfefferman), Мелора Хардин (Tammy Cashman), Джудит Лайт (Shelly Pfefferman), Роб Хюбел (Len Novak), Александра Биллингс (Davina), Кэрри Браунштейн (Syd Feldman), Эбби Райдер Фортсон (Ella Novak), Лоуренс Прессман (Ed), Закари Херрера (Zack)

  • Описание:
    История обыкновенной семьи из Лос-Анджелеса. В центре сюжета сериала - события, которые полностью перевернули жизнь взрослых детей и главы семьи. Оказывается, что у отца семейства есть свой секрет - он транссексуал. Его родные неоднозначно воспринимают этот факт.
    Событие приводит к разногласиям, и эта ситуация накладывает отпечаток не только на прошлое, но и на будущее всех членов семьи. Сериал показывает, что у всех героев есть серьезные проблемы с понятием «личного пространства». И свои темные тайны...
  • Рейтинг:



  • Качество: WEB-DLRip
  • Формат: :AVI
  • Видео кодек: XviD
  • Аудио кодек: AC3
  • Видео: 720x352 (2.045), 1999 kbps, 23,976 fps, 0,329 bpp
  • Аудио №1: 2.0 / 48 kHz / 192 kbps / 16 bit
  • Аудио №2: 2.0 / 48 kHz / 192 kbps / 16 bit
  • Релиз от: GEKADOL

    Код:

    General
    Complete name                            : D:\Фильмы\Transparent.s01.WEBRip.DVO.Ozz.CasStudio.TV\Transparent.S01E10.WEBRip.Rus.Eng.CasStudio.TV.avi
    Format                                   : AVI
    Format/Info                              : Audio Video Interleave
    File size                                : 493 MiB
    Duration                                 : 28mn 43s
    Overall bit rate                         : 2 398 Kbps
    Writing application                      : VirtualDubMod 1.5.10.3 | www.virtualdub-fr.org || (build 2550/release)
    Writing library                          : VirtualDubMod build 2550/release

    Video
    ID                                       : 0
    Format                                   : MPEG-4 Visual
    Format profile                           : Advanced Simple@L5
    Format settings, BVOP                    : 1
    Format settings, QPel                    : No
    Format settings, GMC                     : No warppoints
    Format settings, Matrix                  : Default (MPEG)
    Codec ID                                 : XVID
    Codec ID/Hint                            : XviD
    Duration                                 : 28mn 43s
    Bit rate                                 : 2 000 Kbps
    Width                                    : 720 pixels
    Height                                   : 352 pixels
    Display aspect ratio                     : 2.045
    Frame rate                               : 23.976 fps
    Color space                              : YUV
    Chroma subsampling                       : 4:2:0
    Bit depth                                : 8 bits
    Scan type                                : Progressive
    Compression mode                         : Lossy
    Bits/(Pixel*Frame)                       : 0.329
    Stream size                              : 411 MiB (83%)
    Writing library                          : XviD 65

    Audio #1
    ID                                       : 1
    Format                                   : AC-3
    Format/Info                              : Audio Coding 3
    Mode extension                           : CM (complete main)
    Codec ID                                 : 2000
    Duration                                 : 28mn 43s
    Bit rate mode                            : Constant
    Bit rate                                 : 192 Kbps
    Channel(s)                               : 2 channels
    Channel positions                        : Front: L R
    Sampling rate                            : 48.0 KHz
    Bit depth                                : 16 bits
    Compression mode                         : Lossy
    Stream size                              : 39.4 MiB (8%)
    Alignment                                : Split accross interleaves
    Interleave, duration                     : 42 ms (1.00 video frame)
    Interleave, preload duration             : 500 ms

    Audio #2
    ID                                       : 2
    Format                                   : AC-3
    Format/Info                              : Audio Coding 3
    Mode extension                           : CM (complete main)
    Codec ID                                 : 2000
    Duration                                 : 28mn 43s
    Bit rate mode                            : Constant
    Bit rate                                 : 192 Kbps
    Channel(s)                               : 2 channels
    Channel positions                        : Front: L R
    Sampling rate                            : 48.0 KHz
    Bit depth                                : 16 bits
    Compression mode                         : Lossy
    Stream size                              : 39.4 MiB (8%)
    Alignment                                : Split accross interleaves
    Interleave, duration                     : 42 ms (1.00 video frame)
    Interleave, preload duration             : 500 ms


    Скриншоты:



    pb.wtf



  • Скачать Очевидное через торрент http://i64.fastpic.ru/big/2015/0130/ec/20f5d62e0543fdcd8a19e298b2f799ec.jpg Скачать фильм Очевидное через торрент бесплантно в хорошем качестве Описание: История обыкновенной семьи из Лос-Анджелеса. В центре сюжета сериала - события, которые полностью перевернули жизнь взрослых ... 1 10 1
    Info! Золотая раздача, скачанное не засчитывается.
    Торрент: Зарегистрирован [2015-01-30 04:43] · скачан: 19 раз
    Статус: √ проверено
    Размер: 4.83 GB
    Как cкачать? Как скачать Очевидное через торрент | qTorrent

    28-11-2019 20:33  

    Отключить всю рекламу на сайте

      Дорогой пользователь! Огромная просьба, поблагодарите релизера, оцените раздачу и оставьте свои комментарий, если Вы скачали Очевидное через торрент бесплатно! Внесите свою лепту в развитие PiratBit!
      Комментировать посты могут только пользователи прошедшие не сложную регистрацию
      Показать сообщения:    

      Очевидное через торрент
      Скачать бесплатно Очевидное
      Очевидное скачать торрент
      Очевидное смотреть онлайн
      Cкачать фильм Очевидное бесплатно
      Очевидное скачать торрент в хорошем качестве
      Очевидное смотреть онлайн бесплатно в хорошем качестве


      Вы не можете начинать темы
      Вы не можете отвечать на сообщения
      Вы не можете редактировать свои сообщения
      Вы не можете удалять свои сообщения
      Вы не можете голосовать в опросах
      Вы не можете прикреплять файлы к сообщениям
      Вы можете скачивать файлы