Доктор Стрэндж

Лицензия

Добыча

Дубляж

Дом дракона

1 сезон

Тор

Дубляж

В эфире

Дубляж

Там, где раки поют

MVO

Властелин колец

1 сезон

GLOBAL

pack

Рекомендуем

30

Пиратка

ВАЖНО

ВАЖНО

Ghostwire

Пиратка

jed

RePack

nioh2

RePack

RDR2

RePack

NEED FOR SPEED™ PAYBACK

RePack

скачать торрент

Кинопоиск HD

Острые козырьки 6 сезон

6 сезон

FAR CRY 6

RePack

скачать торрент

Лицензия

скачать торрент

MVO

1

1 сезон

скачать торрент

1 сезон

скачать торрент

Лицензия

  

Солдат в синем мундире / Soldier Blue (Ральф Нельсон) [1970 г., вестерн, история, BDRip 720p,] DVO+Original

Солдат в синем мундире через торрент pb.wtf

Размер: 9.27 GB | Добавлен: 7 лет 10 мес. назад | Торрент скачан:38 раз
Смотреть онлайн | Скачать   

30-01-2015 14:43 Солдат в синем мундире Скачать торрент  

Солдат в синем мундире / Soldier Blue
Год выпуска: 1970
Страна: США
Жанр: вестерн, история
Продолжительность: 01:55:13
Перевод: Профессиональный двухголосый
Субтитры: Russian, English

Режиссер: Ральф Нельсон



В ролях: Кэндис Берген, Питер Штраусс, Дональд Плезенс, Джон Андерсон, Хорхе Риверо, Дэна Элкар, Боб Каррауэй, Мартин Уэст, Джеймс Хэмптон, Морт Миллз

Описание: Отряд кавалерии, сопровождавший золото, подвергся нападению индейцев и был уничтожен. Спаслись только женщина и один солдат. Вместе они добираются до своих, по пути между ними завязывается роман...

Качество: BDRip 720p
Формат: MKV
Видео кодек: AVC
Аудио кодек: DTS
Видео: 1280x544 (2.35:1), 23.976 fps, 8 500 Kbps (0.509 bit/pixel)
Аудио#1: Russian: 48 kHz/16-bit, DTS, 2/0 (L,R) ch, ~1509.00 kbps avg |Двухголосый закадровый, CP-Digital|
Аудио#2: English: 48 kHz/16-bit, DTS, 2/0 (L,R) ch, ~1509.00 kbps avg
Релиз от: DON
скриншот   скриншот   скриншот   скриншот   скриншот   скриншот   скриншот   скриншот  

General
Unique ID : 235559542886758087558096578964650694174 (0xB1371E23C2F3BF73AACE86C32B1F961E)
Complete name : G:\кино\Солдат в синем мундире Soldier Blue\Soldier.Blue.1970.720p.Bluray.Rus.Eng.HDCLUB.mkv
Format : Matroska
Format version : Version 2
File size : 9.27 GiB
Duration : 1h 55mn
Overall bit rate : 11.5 Mbps
Movie name : Soldier Blue (1970) - Release for HDCLUB
Encoded date : UTC 2015-01-19 17:24:05
Writing application : mkvmerge v5.7.0 ('The Whirlwind') built on Jul 8 2012 20:08:51
Writing library : libebml v1.2.3 + libmatroska v1.3.0

Video
ID : 1
Format : AVC
Format/Info : Advanced Video Codec
Format profile : [email protected]
Format settings, CABAC : Yes
Format settings, ReFrames : 4 frames
Codec ID : V_MPEG4/ISO/AVC
Duration : 1h 55mn
Bit rate : 8 500 Kbps
Width : 1 280 pixels
Height : 544 pixels
Display aspect ratio : 2.35:1
Frame rate mode : Constant
Frame rate : 23.976 fps
Color space : YUV
Chroma subsampling : 4:2:0
Bit depth : 8 bits
Scan type : Progressive
Bits/(Pixel*Frame) : 0.509
Stream size : 6.66 GiB (72%)
Writing library : x264 core 115 r1995 c1e60b9
Encoding settings : cabac=1 / ref=3 / deblock=1:-3:-3 / analyse=0x3:0x133 / me=umh / subme=10 / psy=1 / psy_rd=1.00:0.00 / mixed_ref=1 / me_range=32 / chroma_me=1 / trellis=2 / 8x8dct=1 / cqm=0 / deadzone=21,11 / fast_pskip=0 / chroma_qp_offset=-2 / threads=18 / sliced_threads=0 / nr=0 / decimate=0 / interlaced=0 / bluray_compat=0 / constrained_intra=0 / bframes=7 / b_pyramid=2 / b_adapt=2 / b_bias=0 / direct=3 / weightb=1 / open_gop=0 / weightp=2 / keyint=250 / keyint_min=23 / scenecut=40 / intra_refresh=0 / rc_lookahead=40 / rc=2pass / mbtree=0 / bitrate=8500 / ratetol=1.0 / qcomp=0.65 / qpmin=0 / qpmax=40 / qpstep=4 / cplxblur=20.0 / qblur=0.5 / vbv_maxrate=50000 / vbv_bufsize=50000 / nal_hrd=none / ip_ratio=1.25 / pb_ratio=1.25 / aq=1:0.65
Language : English
Default : Yes
Forced : No

Audio #1
ID : 2
Format : DTS
Format/Info : Digital Theater Systems
Mode : 16
Format settings, Endianness : Big
Codec ID : A_DTS
Duration : 1h 55mn
Bit rate mode : Constant
Bit rate : 1 509 Kbps
Channel(s) : 2 channels
Channel positions : Front: L R
Sampling rate : 48.0 KHz
Bit depth : 16 bits
Compression mode : Lossy
Stream size : 1.21 GiB (13%)
Title : |Двухголосый закадровый, CP-Digital|
Language : Russian
Default : Yes
Forced : No

Audio #2
ID : 3
Format : DTS
Format/Info : Digital Theater Systems
Mode : 16
Format settings, Endianness : Big
Codec ID : A_DTS
Duration : 1h 55mn
Bit rate mode : Constant
Bit rate : 1 509 Kbps
Channel(s) : 2 channels
Channel positions : Front: L R
Sampling rate : 48.0 KHz
Bit depth : 16 bits
Compression mode : Lossy
Stream size : 1.21 GiB (13%)
Language : English
Default : No
Forced : No

Text #1
ID : 4
Format : UTF-8
Codec ID : S_TEXT/UTF8
Codec ID/Info : UTF-8 Plain Text
Language : Russian
Default : No
Forced : No

Text #2
ID : 5
Format : UTF-8
Codec ID : S_TEXT/UTF8
Codec ID/Info : UTF-8 Plain Text
Language : English
Default : No
Forced : No

Menu
00:00:00.000 : en:00:00:00.000
00:04:12.961 : en:00:04:12.961
00:13:01.656 : en:00:13:01.656
00:24:35.307 : en:00:24:35.307
00:31:07.908 : en:00:31:07.908
00:37:27.454 : en:00:37:27.454
00:45:42.949 : en:00:45:42.949
00:51:40.723 : en:00:51:40.723
01:00:16.029 : en:01:00:16.029
01:10:03.533 : en:01:10:03.533
01:20:28.407 : en:01:20:28.407
01:27:53.268 : en:01:27:53.268
01:34:52.478 : en:01:34:52.478
01:41:14.568 : en:01:41:14.568
01:49:28.771 : en:01:49:28.771
01:53:35.517 : en:01:53:35.517




Скачать Солдат в синем мундире через торрент https://pic1.kartinco.top/images/81/n1d4x.jpg Скачать, смотреть онлайн Солдат в синем мундире бесплантно в хорошем качестве Описание: Отряд кавалерии, сопровождавший золото, подвергся нападению индейцев и был уничтожен. Спаслись только женщина и один солдат. ... 10 10 8
Info! Золотая раздача, скачанное не засчитывается.
Торрент: Зарегистрирован [2015-01-30 14:43] · скачан: 38 раз
Статус: √ проверено
Размер: 9.27 GB
Как cкачать? Как скачать Солдат в синем мундире через торрент | UTorrent

28-11-2019 20:33  


Отключить вcю реклaмy на сайте, в т.ч. и в плеере онлайн просмотра!

30-01-2015 16:55 Солдат в синем мундире Скачать торрент  

Спасибо. Когда-то давно, по телевизору, он шел под названием "Голубой солдат". Теперь уже так не назовешь...



30-01-2015 19:17 Солдат в синем мундире Скачать торрент  

7-й скрин зачет :curtsey:
вдувабельно sarcastic



    Дорогой пользователь! Огромная просьба, поблагодарите релизера, оцените раздачу и оставьте свои комментарий, если Вы скачали Солдат в синем мундире через торрент бесплатно!!
    Комментировать посты могут только пользователи прошедшие не сложную регистрацию
    Показать сообщения:    


    Солдат в синем мундире через торрент
    Скачать бесплатно Солдат в синем мундире
    Солдат в синем мундире скачать торрент
    Солдат в синем мундире смотреть онлайн
    Cкачать фильм Солдат в синем мундире бесплатно
    Солдат в синем мундире скачать торрент в хорошем качестве
    Солдат в синем мундире смотреть онлайн бесплатно в хорошем качестве
    Вы не можете начинать темы
    Вы не можете отвечать на сообщения
    Вы не можете редактировать свои сообщения
    Вы не можете удалять свои сообщения
    Вы не можете голосовать в опросах
    Вы не можете прикреплять файлы к сообщениям
    Вы можете скачивать файлы
    Солдат в синем мундире / Soldier Blue [1970 г., вестерн, история, BDRip 720p,] DVO+Original смотреть онлайн, скачать торрент picoco.icu