2 сезон

iTunes

1 сезон

1

iTunes

iTunes

iTunes

1 сезон

RePack

30

ИГРА 18+

pack

ВАЖНО

!!Акция!!

Alien_RageХит недели

RePack

MK11
pack

Забери бонус

RePack

jed

!!Акция!!

Alien_Rage

RePack

fifa19

RePack

Assassins Creed: Odyssey

RePack

NEED FOR SPEED™ PAYBACK

4 сезон

9 сезон

Бесстыжие 9 сезон

Все сериалы

все сериалы на PB.wtf

RePack

FAR CRY 5
  

Страсти Христовы / The Passion of the Christ (Мэл Гибсон, Бенедикт Фицджеральд) [2004, драма, BDRip 720p] MVO, DVO, 2 x AVO pb.wtf

Страсти Христовы через торрент pb.wtf

Размер: 9.6 GB | Добавлен: 5 лет 8 мес. назад | Торрент скачан:92 раза
Скачать  

31-01-2015 06:52 Страсти Христовы Скачать торрент  

Страсти Христовы / The Passion of the Christ

Год выпуска: 2004
Страна: США
Жанр: драма
Продолжительность: 02:06:32
Перевод: профессиональный многоголосый, профессиональный двухголосый, авторский
Субтитры: русские, английские (все отдельно)

Режиссёр: Мэл Гибсон, Бенедикт Фицджеральд

В ролях: Джеймс Кэвизел, Майя Моргенштерн, Моника Беллуччи, Люка Лионнелло, Христо Дживков, Франческо Де Вито, Маттиа Сбраджа, Тони Берторелли, Клаудия Джерини, Франческо Габриэль, Анджело Ди Лорета, Тед Русофф, Ромуальд Андзей Клос, Розалинда Челентано

Описание: Попытка детально воссоздать последние двенадцать часов из жизни Иисуса Христа. Действие начинается в Гефсиманском саду, куда Иисус пришёл помолиться после тайной вечери. Иисус сопротивляется искушениям, которым подвергает его Сатана. Преданный Иудой Искариотом, Иисус арестован. Его приводят назад в Иерусалим, где предводители фарисеев обвиняют его в богохульстве, и суд над ним завершается смертным приговором. Иисуса приводят к прокуратору Иудеи Пилату, который выслушивает обвинения, выдвинутые фарисеями и предлагает толпе сделать выбор между Иисусом и разбойником Варравой. Толпа выбирает свободу Варраве и смерть Иисусу. Иисуса передают римским солдатам и подвергают бичеванию. Обезображенного до неузнаваемости его снова приводят к Пилату, который показывает его толпе, словно говоря: «Разве этого недостаточно?» Толпе недостаточно. Пилат умывает руки и приказывает сделать так, как желает толпа. Иисусу дают крест и приказывают пронести его по улицам Иерусалима до самой Голгофы. На Голгофе Иисуса распинают, и он проходит через последнее искушение: страх, что его Отец покинул его. Он преодолевает этот страх, смотрит на свою мать Марию и произносит слова, которые может понять до конца только она: «Свершилось»…



Качество: BDRip 720p Сравнение с исходником
Формат: MKV
Видео кодек: H.264
Видео: 5067 Кбит/с, 1280x534, 23.976 кадра/с, 0.309 bpp
Аудио 1: русский, AC3, 640 kbps, 6 ch, 48 kHz [профессиональный многоголосый]
Аудио 2: русский, AC3, 640 kbps, 6 ch, 48 kHz [профессиональный двухголосый]
Аудио 3: русский, AC3, 448 kbps, 6 ch, 48 kHz [авторский, Якоб Беллман]
Аудио 4: русский, AC3, 448 kbps, 6 ch, 48 kHz [авторский, Юрий Живов]

Отдельные файлы
Аудио: русский, DTS, 1509 kbps, 6 ch, 48 kHz [авторский, Якоб Беллман]
Аудио: русский, DTS, 1509 kbps, 6 ch, 48 kHz [авторский, Юрий Живов]
Аудио: арамейский, AC3, 448 kbps, 6 ch, 48 kHz [оригинал]
«Золотой сателлит» за режиссуру, 2 «Серебряных ленты» в Италии — за работу художника (Франческо Фриджери — также за фильм «Не покидай») и костюмы (Маурицио Милленотти).

Оскар, 2005 год
Номинации (3):
Лучшая работа оператора
Лучший грим
Лучший саундтрек

Золотой орел, 2005 год
Победитель (1):
Лучший зарубежный фильм в российском прокате — «Централ Партнершип»

Премия канала «MTV», 2004 год
Номинации (1):
Лучшая мужская роль (Джеймс Кэвизел)
Общее
Полное имя : D:VideoStrasti Hristovy.2004.BDRip.720pStrasti Hristovy.2004.AVO.rus.Ю.Живов.dts
Формат : DTS
Формат/Информация : Digital Theater Systems
Размер файла : 1,33 Гбайт
Продолжительность : 2 ч. 6 м.
Режим общего битрейта : Постоянный
Общий поток : 1509 Кбит/сек

Аудио
Формат : DTS
Формат/Информация : Digital Theater Systems
Режим : 16
Параметр Endianness формата : Big
Продолжительность : 2 ч. 6 м.
Вид битрейта : Постоянный
Битрейт : 1509 Кбит/сек
Каналы : 6 каналов
Расположение каналов : Front: L C R, Side: L R, LFE
Частота : 48,0 КГц
Битовая глубина : 24 бит
Метод сжатия : С потерями
Размер потока : 1,33 Гбайт (100%)

Общее
Полное имя : D:VideoStrasti Hristovy.2004.BDRip.720pStrasti Hristovy.2004.AVO.rus.Я.Беллман.dts
Формат : DTS
Формат/Информация : Digital Theater Systems
Размер файла : 1,33 Гбайт
Продолжительность : 2 ч. 6 м.
Режим общего битрейта : Постоянный
Общий поток : 1510 Кбит/сек

Аудио
Формат : DTS
Формат/Информация : Digital Theater Systems
Режим : 16
Параметр Endianness формата : Big
Продолжительность : 2 ч. 6 м.
Вид битрейта : Постоянный
Битрейт : 1510 Кбит/сек
Каналы : 6 каналов
Расположение каналов : Front: L C R, Side: L R, LFE
Частота : 48,0 КГц
Битовая глубина : 24 бит
Метод сжатия : С потерями
Размер потока : 1,33 Гбайт (100%)

Общее
Уникальный идентификатор : 174309299508674241773460581526895981093 (0x8322BFFCC81A53429259773D6451F225)
Полное имя : D:VideoStrasti Hristovy.2004.BDRip.720pStrasti Hristovy.2004.BDRip.720p.mkv
Формат : Matroska
Версия формата : Version 4 / Version 2
Размер файла : 6,53 Гбайт
Продолжительность : 2 ч. 6 м.
Общий поток : 7390 Кбит/сек
Дата кодирования : UTC 2015-01-30 14:13:03
Программа кодирования : mkvmerge v7.5.0 ('Glass Culture') 64bit built on Jan 4 2015 16:48:44
Библиотека кодирования : libebml v1.3.1 + libmatroska v1.4.2
DURATION : 02:06:32.096000000
NUMBER_OF_FRAMES : 237253
NUMBER_OF_BYTES : 425157376
_STATISTICS_WRITING_APP : mkvmerge v7.5.0 ('Glass Culture') 64bit built on Jan 4 2015 16:48:44
_STATISTICS_WRITING_DATE_UTC : 2015-01-30 14:13:03
_STATISTICS_TAGS : BPS DURATION NUMBER_OF_FRAMES NUMBER_OF_BYTES

Видео
Идентификатор : 1
Формат : AVC
Формат/Информация : Advanced Video Codec
Профиль формата : High@L4.1
Параметр CABAC формата : Да
Параметр ReFrames формата : 9 кадров
Идентификатор кодека : V_MPEG4/ISO/AVC
Продолжительность : 2 ч. 6 м.
Битрейт : 5067 Кбит/сек
Ширина : 1280 пикселей
Высота : 534 пикселя
Соотношение сторон : 2,40:1
Режим частоты кадров : Постоянный
Частота кадров : 23,976 кадра/сек
Цветовое пространство : YUV
Субдискретизация насыщенности : 4:2:0
Битовая глубина : 8 бит
Тип развёртки : Прогрессивная
Бит/(Пиксели*Кадры) : 0.309
Размер потока : 4,48 Гбайт (69%)
Заголовок : BDRip -- STarankov
Библиотека кодирования : x264 core 142 r2431 ac76440
Настройки программы : cabac=1 / ref=9 / deblock=1:-1:-1 / analyse=0x3:0x113 / me=umh / subme=10 / psy=1 / psy_rd=1.00:0.15 / mixed_ref=1 / me_range=32 / chroma_me=1 / trellis=2 / 8x8dct=1 / cqm=0 / deadzone=21,11 / fast_pskip=1 / chroma_qp_offset=-3 / threads=6 / lookahead_threads=1 / sliced_threads=0 / nr=0 / decimate=1 / interlaced=0 / bluray_compat=0 / constrained_intra=0 / bframes=8 / b_pyramid=2 / b_adapt=2 / b_bias=0 / direct=3 / weightb=1 / open_gop=0 / weightp=2 / keyint=230 / keyint_min=23 / scenecut=40 / intra_refresh=0 / rc_lookahead=40 / rc=crf / mbtree=0 / crf=17.8 / qcomp=0.60 / qpmin=0 / qpmax=69 / qpstep=4 / vbv_maxrate=40000 / vbv_bufsize=50000 / crf_max=0.0 / nal_hrd=none / filler=0 / ip_ratio=1.40 / pb_ratio=1.30 / aq=1:1.00
Язык : English
Default : Да
Forced : Нет
DURATION : 02:06:32.085000000
NUMBER_OF_FRAMES : 182028
NUMBER_OF_BYTES : 4945327276
_STATISTICS_WRITING_APP : mkvmerge v7.5.0 ('Glass Culture') 64bit built on Jan 4 2015 16:48:44
_STATISTICS_WRITING_DATE_UTC : 2015-01-30 14:13:03
_STATISTICS_TAGS : BPS DURATION NUMBER_OF_FRAMES NUMBER_OF_BYTES

Аудио #1
Идентификатор : 2
Формат : AC-3
Формат/Информация : Audio Coding 3
Расширение режима : CM (complete main)
Параметр Endianness формата : Big
Идентификатор кодека : A_AC3
Продолжительность : 2 ч. 6 м.
Вид битрейта : Постоянный
Битрейт : 640 Кбит/сек
Каналы : 6 каналов
Расположение каналов : Front: L C R, Side: L R, LFE
Частота : 48,0 КГц
Битовая глубина : 16 бит
Метод сжатия : С потерями
Размер потока : 579 Мбайт (9%)
Заголовок : MVO
Язык : Russian
Default : Да
Forced : Нет

Аудио #2
Идентификатор : 3
Формат : AC-3
Формат/Информация : Audio Coding 3
Расширение режима : CM (complete main)
Параметр Endianness формата : Big
Идентификатор кодека : A_AC3
Продолжительность : 2 ч. 6 м.
Вид битрейта : Постоянный
Битрейт : 640 Кбит/сек
Каналы : 6 каналов
Расположение каналов : Front: L C R, Side: L R, LFE
Частота : 48,0 КГц
Битовая глубина : 16 бит
Метод сжатия : С потерями
Размер потока : 579 Мбайт (9%)
Заголовок : DVO
Язык : Russian
Default : Нет
Forced : Нет

Аудио #3
Идентификатор : 4
Формат : AC-3
Формат/Информация : Audio Coding 3
Расширение режима : CM (complete main)
Параметр Endianness формата : Big
Идентификатор кодека : A_AC3
Продолжительность : 2 ч. 6 м.
Вид битрейта : Постоянный
Битрейт : 448 Кбит/сек
Каналы : 6 каналов
Расположение каналов : Front: L C R, Side: L R, LFE
Частота : 48,0 КГц
Битовая глубина : 16 бит
Метод сжатия : С потерями
Размер потока : 405 Мбайт (6%)
Заголовок : AVO (Якоб Беллман)
Язык : Russian
Default : Нет
Forced : Нет

Аудио #4
Идентификатор : 5
Формат : AC-3
Формат/Информация : Audio Coding 3
Расширение режима : CM (complete main)
Параметр Endianness формата : Big
Идентификатор кодека : A_AC3
Продолжительность : 2 ч. 6 м.
Вид битрейта : Постоянный
Битрейт : 448 Кбит/сек
Каналы : 6 каналов
Расположение каналов : Front: L C R, Side: L R, LFE
Частота : 48,0 КГц
Битовая глубина : 16 бит
Метод сжатия : С потерями
Размер потока : 405 Мбайт (6%)
Заголовок : AVO (Юрий Живов)
Язык : Russian
Default : Нет
Forced : Нет

Общее
Полное имя : D:VideoStrasti Hristovy.2004.BDRip.720pStrasti Hristovy.2004.eng.srt
Формат : SubRip
Размер файла : 34,1 Кбайт

Текст
Формат : SubRip
Метод сжатия : Без потерь

Общее
Полное имя : D:VideoStrasti Hristovy.2004.BDRip.720pStrasti Hristovy.2004.Original.arc.ac3
Формат : AC-3
Формат/Информация : Audio Coding 3
Размер файла : 405 Мбайт
Продолжительность : 2 ч. 6 м.
Режим общего битрейта : Постоянный
Общий поток : 448 Кбит/сек

Аудио
Формат : AC-3
Формат/Информация : Audio Coding 3
Расширение режима : CM (complete main)
Параметр Endianness формата : Big
Продолжительность : 2 ч. 6 м.
Вид битрейта : Постоянный
Битрейт : 448 Кбит/сек
Каналы : 6 каналов
Расположение каналов : Front: L C R, Side: L R, LFE
Частота : 48,0 КГц
Битовая глубина : 16 бит
Метод сжатия : С потерями
Размер потока : 405 Мбайт (100%)

Общее
Полное имя : D:VideoStrasti Hristovy.2004.BDRip.720pStrasti Hristovy.2004.rus.srt
Формат : SubRip
Размер файла : 42,1 Кбайт

Текст
Формат : SubRip
Метод сжатия : Без потерь
pb.wtf



Скачать Страсти Христовы через торрент http://i58.fastpic.ru/big/2015/0131/7f/0bf42ecba1f36234185dd9febbc58b7f.jpg Скачать фильм Страсти Христовы через торрент бесплантно в хорошем качестве Описание: Попытка детально воссоздать последние двенадцать часов из жизни Иисуса Христа. Действие начинается в Гефсиманском саду, куда ... 9.4 10 14
Info! Золотая раздача, скачанное не засчитывается.
Торрент: Зарегистрирован [2015-01-31 06:52] · скачан: 92 раз
Статус: √ проверено
Размер: 9.6 GB
Как cкачать? Как скачать Страсти Христовы через торрент | qTorrent

% Раздел Тема Автор DL S | L
Фильмы [HD 720p, 1080p] (Хороший звук DUB, MVO) [ 16.76 GB ] Страсти Христовы / The Passion of the Christ [2004 BDRip 1080p] MVO DVO 2 x AVO msltel Скачать
1 | 0

28-11-2019 20:33  

Отключить всю рекламу на сайте

    Дорогой пользователь! Огромная просьба, поблагодарите релизера, оцените раздачу и оставьте свои комментарий, если Вы скачали Страсти Христовы через торрент бесплатно! Внесите свою лепту в развитие PiratBit!
    Комментировать посты могут только пользователи прошедшие не сложную регистрацию
    Показать сообщения:    

    Страсти Христовы через торрент
    Скачать бесплатно Страсти Христовы
    Страсти Христовы скачать торрент
    Страсти Христовы смотреть онлайн
    Cкачать фильм Страсти Христовы бесплатно
    Страсти Христовы скачать торрент в хорошем качестве
    Страсти Христовы смотреть онлайн бесплатно в хорошем качестве


    Вы не можете начинать темы
    Вы не можете отвечать на сообщения
    Вы не можете редактировать свои сообщения
    Вы не можете удалять свои сообщения
    Вы не можете голосовать в опросах
    Вы не можете прикреплять файлы к сообщениям
    Вы можете скачивать файлы