Ссылка на приватное зеркало всего за 1$. Внимание количество ограничено!!!

iTunes

iTunes

iTunes

1

iTunes

iTunes

iTunes

iTunes

iTunes

30
pack

$ от Little Big

ВАЖНО

!!Акция!!

Alien_RageХит недели

RePack

Resident Evil 21

ИГРА 18+

pack

RePack

jed

!!Акция!!

Alien_Rage

RePack

fifa19

RePack

Assassins Creed: Odyssey

RePack

NEED FOR SPEED™ PAYBACK

4 сезон

9 сезон

Бесстыжие 9 сезон

Все сериалы

все сериалы на PB.wtf

RePack

FAR CRY 5
  

Майкл / Michael (Нора Эфрон) [1996 г., фэнтези, драма, комедия, HDTVRip 1080p,] DVO,AVO,MVO,Original,Subs pb.wtf

Майкл через торрент pb.wtf

Размер: 5.78 GB | Добавлен: 5 лет 5 мес. назад | Торрент скачан:40 раз
Скачать  

31-01-2015 08:35 Майкл Скачать торрент  

Майкл / Michael
Год выпуска: 1996
Страна: США
Жанр: фэнтези, драма, комедия
Продолжительность: 01:45:07
Перевод: Профессиональный многоголосый
Субтитры: Russian (Попов), Russian (Макалкин), English

Режиссер: Нора Эфрон




В ролях: Джон Траволта, Энди МакДауэлл, Уильям Хёрт, Боб Хоскинс, Роберт Пасторелли, Джин Степлтон, Тери Гарр, Уоллес Лэнгэм, Джои Лорен Эдамс, Карла Гуджино

Описание: Его зовут Майкл. Он живет где-то в захолустье, в прогорающем мотеле посреди штата Айова. Он любитель выпивки, женщин и праздной жизни. Он просто ангел... Не верите? У него, как и положено, есть крылья.

Качество: HDTVRip 1080p
Формат: MKV
Видео кодек: AVC
Аудио кодек: AC3
Видео: 1920x1080 (16:9), 23.976 fps, 5 353 Kbps (0.108 bit/pixel)
Аудио#1: Russian: 48 kHz, AC3, 2/0 (L,R) ch, ~192 kbps avg |Двухголосый закадровый, НТВ|
Аудио#2: Russian: 48 kHz, AC3, 2/0 (L,R) ch, ~256 kbps avg |Одноголосый закадровый, Ю. Сербин|
Аудио#3: Russian: 48 kHz, AC3, 3/2 (L,C,R,l,r) + LFE ch, ~384 kbps avg |Одноголосый закадровый, А. Попов|
Аудио#4: Russian: 48 kHz, AC3, 3/2 (L,C,R,l,r) + LFE ch, ~384 kbps avg |Одноголосый закадровый|
Аудио#5: Ukrainian: 48 kHz, AC3, 3/2 (L,C,R,l,r) + LFE ch, ~384 kbps avg |Многоголосый закадровый, Інтер|
Аудио#6: Ukrainian: 48 kHz, AC3, 3/2 (L,C,R,l,r) + LFE ch, ~384 kbps avg |Двухголосый закадровый, Новый канал|
Аудио#7: English: 48 kHz, AC3, 3/2 (L,C,R,l,r) + LFE ch, ~384 kbps avg
Релиз от: by Skazhutin
скриншот   скриншот   скриншот   скриншот   скриншот   скриншот  

При показе в кино ставили соответствующее каше, закрывающее
"служебную" часть кадра, не предназначенную для показа.
скриншот  

General
Unique ID : 242661828008936292881311101664418019564 (0xB68EF7D4E4355EE8B63F6D9AAA4F38EC)
Complete name : G:\кино\Майкл Michael\Michael.1996.1080p.HDTV.4xRus.2xUkr.Eng.HDCLUB.mkv
Format : Matroska
Format version : Version 4 / Version 2
File size : 5.78 GiB
Duration : 1h 45mn
Overall bit rate : 7 878 Kbps
Movie name : Michael (1996) - Release for HDCLUB by SbR
Encoded date : UTC 2015-01-23 06:19:39
Writing application : mkvmerge v7.5.0 ('Glass Culture') 64bit built on Jan 4 2015 16:48:44
Writing library : libebml v1.3.1 + libmatroska v1.4.2
Attachements : cover.jpg

Video
ID : 1
Format : AVC
Format/Info : Advanced Video Codec
Format profile : High@L4.0
Format settings, CABAC : Yes
Format settings, ReFrames : 4 frames
Format settings, GOP : M=8, N=24
Codec ID : V_MPEG4/ISO/AVC
Duration : 1h 45mn
Bit rate : 5 353 Kbps
Width : 1 920 pixels
Height : 1 080 pixels
Display aspect ratio : 16:9
Frame rate mode : Constant
Frame rate : 23.976 fps
Color space : YUV
Chroma subsampling : 4:2:0
Bit depth : 8 bits
Scan type : MBAFF
Scan order : Top Field First
Bits/(Pixel*Frame) : 0.108
Stream size : 3.93 GiB (68%)
Title : Release for HDCLUB
Language : English
Default : No
Forced : No
Color primaries : BT.709
Transfer characteristics : BT.709
Matrix coefficients : BT.709
Color range : Limited

Audio #1
ID : 2
Format : AC-3
Format/Info : Audio Coding 3
Mode extension : CM (complete main)
Format settings, Endianness : Big
Codec ID : A_AC3
Duration : 1h 45mn
Bit rate mode : Constant
Bit rate : 192 Kbps
Channel(s) : 2 channels
Channel positions : Front: L R
Sampling rate : 48.0 KHz
Bit depth : 16 bits
Compression mode : Lossy
Stream size : 144 MiB (2%)
Title : DVO
Language : Russian
Default : Yes
Forced : No

Audio #2
ID : 3
Format : AC-3
Format/Info : Audio Coding 3
Format profile : Dolby Digital
Mode extension : CM (complete main)
Format settings, Endianness : Big
Codec ID : A_AC3
Duration : 1h 45mn
Bit rate mode : Constant
Bit rate : 256 Kbps
Channel(s) : 2 channels
Channel positions : Front: L R
Sampling rate : 48.0 KHz
Bit depth : 16 bits
Compression mode : Lossy
Stream size : 192 MiB (3%)
Title : Сербин
Language : Russian
Default : No
Forced : No

Audio #3
ID : 4
Format : AC-3
Format/Info : Audio Coding 3
Mode extension : CM (complete main)
Format settings, Endianness : Big
Codec ID : A_AC3
Duration : 1h 45mn
Bit rate mode : Constant
Bit rate : 384 Kbps
Channel(s) : 6 channels
Channel positions : Front: L C R, Side: L R, LFE
Sampling rate : 48.0 KHz
Bit depth : 16 bits
Compression mode : Lossy
Stream size : 289 MiB (5%)
Title : Попов
Language : Russian
Default : No
Forced : No

Audio #4
ID : 5
Format : AC-3
Format/Info : Audio Coding 3
Mode extension : CM (complete main)
Format settings, Endianness : Big
Codec ID : A_AC3
Duration : 1h 45mn
Bit rate mode : Constant
Bit rate : 384 Kbps
Channel(s) : 6 channels
Channel positions : Front: L C R, Side: L R, LFE
Sampling rate : 48.0 KHz
Bit depth : 16 bits
Compression mode : Lossy
Stream size : 289 MiB (5%)
Title : VO, DVD
Language : Russian
Default : No
Forced : No

Audio #5
ID : 6
Format : AC-3
Format/Info : Audio Coding 3
Mode extension : CM (complete main)
Format settings, Endianness : Big
Codec ID : A_AC3
Duration : 1h 45mn
Bit rate mode : Constant
Bit rate : 384 Kbps
Channel(s) : 6 channels
Channel positions : Front: L C R, Side: L R, LFE
Sampling rate : 48.0 KHz
Bit depth : 16 bits
Compression mode : Lossy
Stream size : 289 MiB (5%)
Title : MVO, Інтер
Language : Ukrainian
Default : No
Forced : No

Audio #6
ID : 7
Format : AC-3
Format/Info : Audio Coding 3
Mode extension : CM (complete main)
Format settings, Endianness : Big
Codec ID : A_AC3
Duration : 1h 45mn
Bit rate mode : Constant
Bit rate : 384 Kbps
Channel(s) : 6 channels
Channel positions : Front: L C R, Side: L R, LFE
Sampling rate : 48.0 KHz
Bit depth : 16 bits
Compression mode : Lossy
Stream size : 289 MiB (5%)
Title : DVO, Новый канал
Language : Ukrainian
Default : No
Forced : No

Audio #7
ID : 8
Format : AC-3
Format/Info : Audio Coding 3
Mode extension : CM (complete main)
Format settings, Endianness : Big
Codec ID : A_AC3
Duration : 1h 45mn
Bit rate mode : Constant
Bit rate : 384 Kbps
Channel(s) : 6 channels
Channel positions : Front: L C R, Side: L R, LFE
Sampling rate : 48.0 KHz
Bit depth : 16 bits
Compression mode : Lossy
Stream size : 289 MiB (5%)
Language : English
Default : No
Forced : No

Text #1
ID : 9
Format : UTF-8
Codec ID : S_TEXT/UTF8
Codec ID/Info : UTF-8 Plain Text
Title : Попов
Language : Russian
Default : No
Forced : No

Text #2
ID : 10
Format : UTF-8
Codec ID : S_TEXT/UTF8
Codec ID/Info : UTF-8 Plain Text
Title : Макалкин
Language : Russian
Default : No
Forced : No

Text #3
ID : 11
Format : UTF-8
Codec ID : S_TEXT/UTF8
Codec ID/Info : UTF-8 Plain Text
Language : English
Default : No
Forced : No

Menu
00:00:00.000 : Chapter 1
00:05:34.468 : Chapter 2
00:10:39.935 : Chapter 3
00:16:36.935 : Chapter 4
00:22:34.935 : Chapter 5
00:27:42.302 : Chapter 6
00:33:40.802 : Chapter 7
00:39:41.102 : Chapter 8
00:44:40.269 : Chapter 9
00:50:39.469 : Chapter 10
00:56:40.036 : Chapter 11
01:01:41.270 : Chapter 12
01:07:45.104 : Chapter 13
01:13:40.972 : Chapter 14
01:19:40.873 : Chapter 15
01:25:40.807 : Chapter 16
01:32:40.940 : Chapter 17
01:38:42.440 : Chapter 18

pb.wtf



Скачать Майкл через торрент http://pic.kartinco.top/images/8/cotol.jpg Скачать фильм Майкл через торрент бесплантно в хорошем качестве Описание: Его зовут Майкл. Он живет где-то в захолустье, в прогорающем мотеле посреди штата Айова. Он любитель выпивки, женщин и праздной ... 10 10 8
Info! Серебряная раздача, засчитывается только 50% скачанного.
Торрент: Зарегистрирован [2015-01-31 08:35] · скачан: 40 раз
Статус: √ проверено
Размер: 5.78 GB
Как cкачать? Как скачать Майкл через торрент | qTorrent

28-11-2019 20:33  

Отключить всю рекламу на сайте

    Дорогой пользователь! Огромная просьба, поблагодарите релизера, оцените раздачу и оставьте свои комментарий, если Вы скачали Майкл через торрент бесплатно! Внесите свою лепту в развитие PiratBit!
    Комментировать посты могут только пользователи прошедшие не сложную регистрацию
    Показать сообщения:    

    Майкл через торрент
    Скачать бесплатно Майкл
    Майкл скачать торрент
    Майкл смотреть онлайн
    Cкачать фильм Майкл бесплатно
    Майкл скачать торрент в хорошем качестве
    Майкл смотреть онлайн бесплатно в хорошем качестве


    Вы не можете начинать темы
    Вы не можете отвечать на сообщения
    Вы не можете редактировать свои сообщения
    Вы не можете удалять свои сообщения
    Вы не можете голосовать в опросах
    Вы не можете прикреплять файлы к сообщениям
    Вы можете скачивать файлы