1 сезон

3 сезон

iTunes

1

iTunes

MVO

iTunes

13

1 сезон

RePack

30

Deluxe

pack

Лицензия

ВАЖНО

ИГРА 18+

pack

RePack

MK11

RePack

jed

RePack

fifa19

RePack

RDR2

RePack

NEED FOR SPEED™ PAYBACK

4 сезон

9 сезон

Бесстыжие 9 сезон

Все сериалы

все сериалы на PB.wtf

RePack

FAR CRY 5

Anonymous, добрый вечер, мы катастрофически не успеваем собрать деньги на оплату серверов, помогите нам пожалуйста 5,10,15р., для нас важна любая помощь . В качестве благодарности мы отключим Вам всю рекламу на сайте (укажите свой ник в строку Ваше имя)!

×
  
Magnet ссылка

Ив Сен-Лоран / Yves Saint Laurent (Джалиль Леспер / Jalil Lespert) [2014, драма, мелодрама, биография, DVD5] R5 pb.wtf

Ив Сен-Лоран через торрент pb.wtf

Размер: 3.94 GB | Добавлен: 6 лет 5 мес. назад | Торрент скачан:27 раз
Скачать  

31-01-2015 10:16 Ив Сен-Лоран Скачать торрент  


Ив Сен-Лоран / Yves Saint Laurent
Страна: Франция, Бельгия
Студия: Canal+ [fr], Centre National de la Cinématographie (CNC), CinГ©france 1888, Cofinova 10, Hérodiade, IndГ©films 2, Orange Cinéma Séries, Procirep, SND, uFund, uMedia Family, Wy Productions
Жанр: драма, мелодрама, биография
Год выпуска: 2014
Мировая премьера: 8 января 2014
Российская премьера: 20 марта 2014
Дата выхода DVD: 13 мая 2014
Продолжительность: 01:41:22
Перевод: Профессиональный (многоголосый закадровый) [Лицензия]
Cубтитры: украинские
Оригинальная аудиодорожка: нет
Режиссер: Джалиль Леспер / Jalil Lespert
В ролях: Пьер Нинэ, Гийом Гальенн, Шарлотта Ле Бон, Лаура Смет, Мари де Вильпен, Николай Кински, Рубен Алвес, Астрид Ветналл, Марианн Басле, Аделин О’Эрми
Описание: Париж, январь 1958 года. Ив Сен Лоран в возрасте 21-го года неожиданно был призван управлять большими домами моды, которыми заведовал недавно умерший Кристиан Диор. Очень молодой помощник привлек всеобщее внимание своей первой же коллекцией одежды…
Бонусы: нет

Релиз группы:
Качество: DVD5 R5
Формат: DVD-Video
Видео кодек: MPEG2
Аудио кодек: AC3
Видео: PAL 16:9 (720x576(0.497)) MPEG Video, 25,000 кадр/сек, 5149 Кбит/сек
Аудио: Russian (Dolby AC3, 6 ch) 448 Кбит/сек, 48,0 КГц



Title:
Size: 3.94 Gb ( 4 136 630 KBytes ) - DVD-5
Enabled regions: 1, 2, 3, 4, 5, 6, 7, 8

VTS_01 :
Play Length: 01:41:22
Video: PAL 16:9 (720x576) VBR, Auto Pan&Scan
Audio:
Russian (Dolby AC3, 6 ch)
Subtitles:
Ukrainian

VTS_02 :
Play Length: 00:00:08
Video: PAL 4:3 (720x576) VBR

VTS_03 :
Play Length: 00:00:11
Video: PAL 16:9 (720x576) VBR, Auto Pan&Scan
Subtitles:
English

Menu Video:
NTSC 4:3 (720x480) VBR
Auto Pan&Scan, Auto Letterboxed
Menu Russian Language Unit :
Root Menu
Subpicture Menu
Chapter (PTT) Menu
Общее
Полное имя : F:\Новинки 2015\Iv.Sen-Loran.2014.D.DVD5\VIDEO_TS\VTS_01_3.VOB
Формат : MPEG-PS
Размер файла : 1024 Мбайт
Продолжительность : 25 м.
Режим общего битрейта : Переменный
Общий поток : 5710 Кбит/сек

Видео
Идентификатор : 224 (0xE0)
Формат : MPEG Video
Версия формата : Version 2
Профиль формата : Main@Main
Параметр BVOP формата : Да
Параметр матрицы формата : Выборочная
Параметр GOP формата : M=3, N=15
Format_Settings_PictureStructure : Frame
Продолжительность : 25 м.
Вид битрейта : Переменный
Битрейт : 5149 Кбит/сек
Максимальный битрейт : 8000 Кбит/сек
Ширина : 720 пикселей
Высота : 576 пикселей
Соотношение сторон : 16:9
Частота кадров : 25,000 кадров/сек
Стандарт вещания : PAL
Цветовое пространство : YUV
Субдискретизация насыщенности : 4:2:0
Битовая глубина : 8 бит
Тип развёртки : Чересстрочная
Порядок развёртки : Верхнее поле первое
Метод сжатия : С потерями
Бит/(Пиксели*Кадры) : 0.497
Временной код первого кадра : 00:53:40:14
Оригинал временного кода : Group of pictures header
Размер потока : 923 Мбайт (90%)

Аудио
Идентификатор : 189 (0xBD)-128 (0x80)
Формат : AC-3
Формат/Информация : Audio Coding 3
Расширение режима : CM (complete main)
Параметр Endianness формата : Big
Режим смешивания : DVD-Video
Продолжительность : 25 м.
Вид битрейта : Постоянный
Битрейт : 448 Кбит/сек
Каналы : 6 каналов
Расположение каналов : Front: L C R, Side: L R, LFE
Частота : 48,0 КГц
Битовая глубина : 16 бит
Метод сжатия : С потерями
Задержка видео : -800 мс.
Размер потока : 80,3 Мбайт (8%)

Текст
Идентификатор : 189 (0xBD)-32 (0x20)
Формат : RLE
Формат/Информация : Run-length encoding
Режим смешивания : DVD-Video
Задержка видео : -200 мс.










pb.wtf



Скачать Ив Сен-Лоран через торрент http://i58.fastpic.ru/big/2015/0130/36/023636871e89990a4170dc5577c01336.jpg Скачать фильм Ив Сен-Лоран через торрент бесплантно в хорошем качестве Описание: Париж, январь 1958 года. Ив Сен Лоран в возрасте 21-го года неожиданно был призван управлять большими домами моды, которыми ... 8.7 10 3
Торрент: Зарегистрирован [2015-01-31 10:16] · скачан: 27 раз
Статус: √ проверено
Размер: 3.94 GB
Как cкачать? Как скачать Ив Сен-Лоран через торрент | UTorrent

28-11-2019 20:33  

Отключить всю рекламу на сайте

    Дорогой пользователь! Огромная просьба, поблагодарите релизера, оцените раздачу и оставьте свои комментарий, если Вы скачали Ив Сен-Лоран через торрент бесплатно! Внесите свою лепту в развитие PiratBit!
    Комментировать посты могут только пользователи прошедшие не сложную регистрацию
    Показать сообщения:    

    Ив Сен-Лоран через торрент
    Скачать бесплатно Ив Сен-Лоран
    Ив Сен-Лоран скачать торрент
    Ив Сен-Лоран смотреть онлайн
    Cкачать фильм Ив Сен-Лоран бесплатно
    Ив Сен-Лоран скачать торрент в хорошем качестве
    Ив Сен-Лоран смотреть онлайн бесплатно в хорошем качестве


    Вы не можете начинать темы
    Вы не можете отвечать на сообщения
    Вы не можете редактировать свои сообщения
    Вы не можете удалять свои сообщения
    Вы не можете голосовать в опросах
    Вы не можете прикреплять файлы к сообщениям
    Вы можете скачивать файлы