Ссылка на приватное зеркало нашего сайта всего за 1$. Внимание количество ограничено!!!

2 сезон

iTunes

1 сезон

1

iTunes

iTunes

iTunes

1 сезон

RePack

30

ИГРА 18+

pack

ВАЖНО

!!Акция!!

Alien_RageХит недели

RePack

MK11
pack

Забери бонус

RePack

jed

!!Акция!!

Alien_Rage

RePack

fifa19

RePack

Assassins Creed: Odyssey

RePack

NEED FOR SPEED™ PAYBACK

4 сезон

9 сезон

Бесстыжие 9 сезон

Все сериалы

все сериалы на PB.wtf

RePack

FAR CRY 5
  

Дэвид Линч: Начало / La vie rêvée de David L (Пол Ле , Julien Pichard ) [2014, драма, биография, WEB-DLRip, Любительский (двухголосый) [den904, DeadSno] pb.wtf

Дэвид Линч: Начало через торрент pb.wtf

Размер: 1.35 GB | Добавлен: 5 лет 8 мес. назад | Торрент скачан:48 раз
Скачать  

31-01-2015 19:39 Дэвид Линч: Начало Скачать торрент  


Дэвид Линч: Начало / La vie rêvée de David L


Год выпуска:2014
Страна: Франция
Жанр:драма, биография
Продолжительность01:30:17
Перевод:Любительский (двухголосый) [den904, DeadSno]
Режиссер:Пол Ле , Julien Pichard

  • В ролях:

    Сильвен Урбан (David L), Laure Maloisel (Audrey), Amandine Klep (Laura), Marguerite Dabrin (Claire), Xavier Ameller (Bob), Жан-Давид Степлер (Le directeur), Nicolas Ramade (Fred), Jules Dousset (Frank), Jean-Michel Fouque (Professeur Laurent), Од Лансьо (Professeur Beaumont), Alix Bénézech (Sarah), Моа Кхуас (Ben)
  • Описание:
    Фильм-фантазия на тему студенческих лет Дэвида Линча.
    Действие перенесено в современный Париж. Молодой Давид учится в академии искусств, где изучает живопись и планирует стать художником. Однако после серии событий, граничащих с мистикой, он начинает осознавать, что его настоящей творческой страстью является кинематограф



    Качество: WEB-DLRip
    Формат:AVI
    Видео кодек: XviD
    Аудио кодек:AC3
    Видео: XviD, 704x320 (2.2:1), 1945 kbps, 25 fps, 0,330 bpp
    Аудио: AC3 / 2.0 / 48 kHz / 192 kbps / 16 bit

    Код:

    General
    Complete name                            : D:\Торенты\Djevid.Linch.Nachalo.L2.WEB-DLRip.avi
    Format                                   : AVI
    Format/Info                              : Audio Video Interleave
    File size                                : 1.35 GiB
    Duration                                 : 1h 30mn
    Overall bit rate                         : 2 146 Kbps
    Writing application                      : VirtualDubMod 1.5.10.3 | www.virtualdub-fr.org || (build 2550/release)
    Writing library                          : VirtualDubMod build 2550/release

    Video
    ID                                       : 0
    Format                                   : MPEG-4 Visual
    Format profile                           : Advanced Simple@L5
    Format settings, BVOP                    : 1
    Format settings, QPel                    : No
    Format settings, GMC                     : No warppoints
    Format settings, Matrix                  : Custom
    Codec ID                                 : XVID
    Codec ID/Hint                            : XviD
    Duration                                 : 1h 30mn
    Bit rate                                 :  1945 Kbps
    Width                                    : 704 pixels
    Height                                   : 320 pixels
    Display aspect ratio                     : 2.2:1
    Frame rate                               : 25.000 fps
    Color space                              : YUV
    Chroma subsampling                       : 4:2:0
    Bit depth                                : 8 bits
    Scan type                                : Progressive
    Compression mode                         : Lossy
    Bits/(Pixel*Frame)                       : 0.330
    Stream size                              : 1.17 GiB (87%)
    Writing library                          : XviD 73

    Audio
    ID                                       : 1
    Format                                   : AC-3
    Format/Info                              : Audio Coding 3
    Mode extension                           : CM (complete main)
    Codec ID                                 : 2000
    Duration                                 : 1h 30mn
    Bit rate mode                            : Constant
    Bit rate                                 : 192 Kbps
    Channel(s)                               : 2 channels
    Channel positions                        : Front: L R
    Sampling rate                            : 48.0 KHz
    Bit depth                                : 16 bits
    Compression mode                         : Lossy
    Stream size                              : 124 MiB (9%)
    Alignment                                : Split accross interleaves

    Скриншоты:


    © Оформление by Ворон
    pb.wtf



  • Скачать Дэвид Линч: Начало через торрент http://pic.kartinco.top/images/6/ordi9.jpg Скачать фильм Дэвид Линч: Начало через торрент бесплантно в хорошем качестве Описание:Фильм-фантазия на тему студенческих лет Дэвида Линча.Действие перенесено в современный Париж. Молодой Давид учится в академии ... 10 10 2
    Торрент: Зарегистрирован [2015-01-31 19:39] · скачан: 48 раз
    Статус: T временная
    Размер: 1.35 GB
    Как cкачать? Как скачать Дэвид Линч: Начало через торрент | qTorrent

    28-11-2019 20:33  

    Отключить всю рекламу на сайте

    01-02-2015 16:12 Дэвид Линч: Начало Скачать торрент  

    Как фильмец?pb.wtf



      Дорогой пользователь! Огромная просьба, поблагодарите релизера, оцените раздачу и оставьте свои комментарий, если Вы скачали Дэвид Линч: Начало через торрент бесплатно! Внесите свою лепту в развитие PiratBit!
      Комментировать посты могут только пользователи прошедшие не сложную регистрацию
      Показать сообщения:    

      Дэвид Линч: Начало через торрент
      Скачать бесплатно Дэвид Линч: Начало
      Дэвид Линч: Начало скачать торрент
      Дэвид Линч: Начало смотреть онлайн
      Cкачать фильм Дэвид Линч: Начало бесплатно
      Дэвид Линч: Начало скачать торрент в хорошем качестве
      Дэвид Линч: Начало смотреть онлайн бесплатно в хорошем качестве


      Вы не можете начинать темы
      Вы не можете отвечать на сообщения
      Вы не можете редактировать свои сообщения
      Вы не можете удалять свои сообщения
      Вы не можете голосовать в опросах
      Вы не можете прикреплять файлы к сообщениям
      Вы можете скачивать файлы