Ссылка на приватное зеркало нашего сайта всего за 1$. Внимание количество ограничено!!!

2 сезон

iTunes

1 сезон

1

2 сезон

2 сезон

iTunes

1 сезон

RePack

30

Новинка

ВАЖНО

ИГРА 18+

pack

RePack

MK11
pack

Забери бонус

RePack

jed

!!Акция!!

Alien_Rage

RePack

fifa19

RePack

Assassins Creed: Odyssey

RePack

NEED FOR SPEED™ PAYBACK

4 сезон

9 сезон

Бесстыжие 9 сезон

Все сериалы

все сериалы на PB.wtf

RePack

FAR CRY 5
  

Кибер-террор / Cyberbully (Шарль Бинаме ) [2015, драма, HDTVRip, Любительский (одноголосый) [Pashaup] pb.wtf

Кибер-террор через торрент pb.wtf

Размер: 1.03 GB | Добавлен: 5 лет 10 мес. назад | Торрент скачан:282 раза
Скачать  

31-01-2015 19:51 Кибер-террор Скачать торрент  


Кибер-террор / Cyberbully


Год выпуска:2015
Страна: Великобритания
Жанр:драма
Продолжительность01:02:03
Перевод:Любительский (одноголосый) [Pashaup]
Режиссер:Бен Чанан

  • В ролях:

    Мэйси Уильямс (Casey), Элла Пернелл (Megan), Wilson Haagens (Hacker, озвучка), Энтони Шустер (Dad, озвучка), Харука Абе (Jennifer Li), Джейк Дейвис (Alex), Daisy Waterstone (Tamara)
  • Описание:
    Молодая девушка вынуждена выполнять все указания ненормального хакера, в противном случае её интимные фото попадут в сеть...

  • Мировая премьера:15 января 2015

    Качество: HDTVRip
    Формат:AVI
    Видео кодек: XviD
    Аудио кодек:AC3
    Видео: XviD, 720x304 (2.35:1), 1972 kbps, 25 fps, 0,344 bpp
    Аудио №1: AC3 / 2.0 / 48 kHz / 192 kbps /Русский
    Аудио №2: AC3 / 2.0 / 48 kHz / 192 kbps /английский

    Код:

    General
    Complete name                            : D:\Торенты\Cyberbully.L1.HDTVRip.avi
    Format                                   : AVI
    Format/Info                              : Audio Video Interleave
    File size                                : 1.03 GiB
    Duration                                 : 1h 2mn
    Overall bit rate                         : 2 371 Kbps
    Writing application                      : VirtualDubMod 1.5.10.3 | www.virtualdub-fr.org || (build 2550/release)
    Writing library                          : VirtualDubMod build 2550/release

    Video
    ID                                       : 0
    Format                                   : MPEG-4 Visual
    Format profile                           : Advanced Simple@L5
    Format settings, BVOP                    : 1
    Format settings, QPel                    : No
    Format settings, GMC                     : No warppoints
    Format settings, Matrix                  : Custom
    Codec ID                                 : XVID
    Codec ID/Hint                            : XviD
    Duration                                 : 1h 2mn
    Bit rate                                 : 1972 Kbps
    Width                                    : 720 pixels
    Height                                   : 304 pixels
    Display aspect ratio                     : 2.35:1
    Frame rate                               : 25.000 fps
    Color space                              : YUV
    Chroma subsampling                       : 4:2:0
    Bit depth                                : 8 bits
    Scan type                                : Progressive
    Compression mode                         : Lossy
    Bits/(Pixel*Frame)                       : 0.344
    Stream size                              : 835 MiB (79%)
    Writing library                          : XviD 73

    Audio #1
    ID                                       : 1
    Format                                   : AC-3
    Format/Info                              : Audio Coding 3
    Codec ID                                 : 2000
    Duration                                 : 1h 2mn
    Bit rate mode                            : Constant
    Bit rate                                 : 192 Kbps
    Channel(s)                               : 2 channels
    Sampling rate                            : 48.0 KHz
    Compression mode                         : Lossy
    Stream size                              : 85.2 MiB (8%)
    Alignment                                : Split accross interleaves

    Audio #2
    ID                                       : 2
    Format                                   : AC-3
    Format/Info                              : Audio Coding 3
    Mode extension                           : CM (complete main)
    Codec ID                                 : 2000
    Duration                                 : 1h 2mn
    Bit rate mode                            : Constant
    Bit rate                                 : 192 Kbps
    Channel(s)                               : 2 channels
    Channel positions                        : Front: L R
    Sampling rate                            : 48.0 KHz
    Bit depth                                : 16 bits
    Compression mode                         : Lossy
    Stream size                              : 85.2 MiB (8%)
    Alignment                                : Split accross interleaves

    Скриншоты:


    © Оформление by Ворон
    pb.wtf



  • Скачать Кибер-террор через торрент http://pic.kartinco.top/images/6/ordi9.jpg Скачать фильм Кибер-террор через торрент бесплантно в хорошем качестве Описание:Молодая девушка вынуждена выполнять все указания ненормального хакера, в противном случае её интимные фото попадут в сеть... ... 10 10 1
    Торрент: Зарегистрирован [2015-01-31 19:51] · скачан: 282 раз
    Статус: T временная
    Размер: 1.03 GB
    Как cкачать? Как скачать Кибер-террор через торрент | qTorrent

    % Раздел Тема Автор DL S | L
    Фильмы (WEB-DL 720p, 1080p) [ 2.38 GB ] Кибер-террор / Cyberbully [2015 WEB-DL 1080p многоголосый [официальный звук] Ворон Скачать
    1 | 0
    Фильмы (WEB-DL 720p, 1080p) [ 1.28 GB ] Кибер-террор / Cyberbully [2015 WEB-DL 720p многоголосый [официальный звук] Ворон Скачать
    1 | 0

    28-11-2019 20:33  

    Отключить всю рекламу на сайте

    31-01-2015 19:59 Кибер-террор Скачать торрент  

    сэмпл?pb.wtf



    31-01-2015 20:06 Кибер-террор Скачать торрент  

    horton2011, http://multi-up.com/1030253pb.wtf



    21-03-2015 18:27 Кибер-террор Скачать торрент  

    КАК ФИЛЬМ?????????????????????????pb.wtf



      Дорогой пользователь! Огромная просьба, поблагодарите релизера, оцените раздачу и оставьте свои комментарий, если Вы скачали Кибер-террор через торрент бесплатно! Внесите свою лепту в развитие PiratBit!
      Комментировать посты могут только пользователи прошедшие не сложную регистрацию
      Показать сообщения:    

      Кибер-террор через торрент
      Скачать бесплатно Кибер-террор
      Кибер-террор скачать торрент
      Кибер-террор смотреть онлайн
      Cкачать фильм Кибер-террор бесплатно
      Кибер-террор скачать торрент в хорошем качестве
      Кибер-террор смотреть онлайн бесплатно в хорошем качестве


      Вы не можете начинать темы
      Вы не можете отвечать на сообщения
      Вы не можете редактировать свои сообщения
      Вы не можете удалять свои сообщения
      Вы не можете голосовать в опросах
      Вы не можете прикреплять файлы к сообщениям
      Вы можете скачивать файлы