Всегда рабочее зеркало без VPN и Proxy просто перед .vidak.icu напиши любое слово или цифру, Пример http://4hq0.vidak.icu

MVO

Лицензия

1 сезон

1

1 сезон

iTunes

1 сезон

13

1 сезон

Deluxe

pack

Рекомендуем

Пиратка

30

ВАЖНО

RePack

MK11

RePack

jed

RePack

fifa19

RePack

RDR2

RePack

NEED FOR SPEED™ PAYBACK

Кинопоиск HD

6 сезон

 Острые козырьки 6 сезон

Все сериалы

все сериалы на PB.wtf

RePack

FAR CRY 5
  
Magnet ссылка

8 новых свиданий (Марюс Вайсберг ) [2014, комедия, WEB-DL 1080p, Оригинал [iTunes] pb.wtf

8 новых свиданий через торрент pb.wtf

Размер: 3.23 GB | Добавлен: 7 лет 5 мес. назад | Торрент скачан:4703 раза
Смотреть онлайн 8 новых свиданий | Скачать    Ребята, помогите собрать деньги на оплату серверов!!!

31-01-2015 20:53 8 новых свиданий Скачать торрент  


8 новых свиданий


Год выпуска:2014
Страна: Россия
Жанр:комедия
Продолжительность01:23:55
Перевод:Не требуется
Режиссер:Марюс Вайсберг

  • В ролях:

    Оксана Акиньшина (Вера), Владимир Зеленский (Никита), Михаил Галустян, Полина Максимова, Сергей Шнуров, Виктор Васильев
  • Описание:
    Вера и Никита женаты 3 года. В разгар очередной радостной ссоры они обмениваются категоричными мнениями о том, какими должны быть «нормальный муж» и «хорошая жена». И на следующее утро... каждый просыпается с «идеальной половинкой». У Никиты жена-блондинка с третьим размером, которая хорошо готовит; у Веры заботливый муж-бизнесмен, сам покупающий к завтраку ее любимые круасаны. С кем жить лучше, с любимым или идеальным? Будьте осторожны с желаниями - иногда они сбываются!

  • Мировая премьера:1 января 2015

    Качество: WEB-DL 1080p
    Формат:MKV
    Видео кодек: AVC
    Аудио кодек:AC3
    Видео: AVC, 1920x1080 (16:9), 5014 kbps, 24 fps, 0,101 bpp
    Аудио: русский / AC3 / 5.1 / 48 kHz / 384 kbps / 16 bit ||
    Навигация по главам: есть

    Код:

    General
    Unique ID                                : 225810049023905041364792535054062111867 (0xA9E16EFAE55EFB2AB340A0A2AC3ACC7B)
    Complete name                            : D:\Торенты\8.N0vyh.Sv1daniy.2014.O.WEB-DL.1080p_.mkv
    Format                                   : Matroska
    Format version                           : Version 4 / Version 2
    File size                                : 3.23 GiB
    Duration                                 : 1h 23mn
    Overall bit rate                         : 5 508 Kbps
    Encoded date                             : UTC 2015-01-31 20:00:18
    Writing application                      : mkvmerge v6.9.1 ('Blue Panther') 64bit built on Apr 18 2014 18:23:38
    Writing library                          : libebml v1.3.0 + libmatroska v1.4.1

    Video
    ID                                       : 1
    Format                                   : AVC
    Format/Info                              : Advanced Video Codec
    Format profile                           : High@L4.0
    Format settings, CABAC                   : Yes
    Format settings, ReFrames                : 4 frames
    Codec ID                                 : V_MPEG4/ISO/AVC
    Duration                                 : 1h 23mn
    Bit rate                                 : 5 015 Kbps
    Width                                    : 1 920 pixels
    Height                                   : 1 080 pixels
    Display aspect ratio                     : 16:9
    Frame rate                               : 24.000 fps
    Color space                              : YUV
    Chroma subsampling                       : 4:2:0
    Bit depth                                : 8 bits
    Scan type                                : Progressive
    Bits/(Pixel*Frame)                       : 0.101
    Stream size                              : 2.94 GiB (91%)
    Language                                 : English
    Default                                  : Yes
    Forced                                   : No
    Color primaries                          : BT.709-5, BT.1361, IEC 61966-2-4, SMPTE RP177
    Transfer characteristics                 : BT.709-5, BT.1361
    Matrix coefficients                      : BT.709-5, BT.1361, IEC 61966-2-4 709, SMPTE RP177

    Audio
    ID                                       : 2
    Format                                   : AC-3
    Format/Info                              : Audio Coding 3
    Mode extension                           : CM (complete main)
    Codec ID                                 : A_AC3
    Duration                                 : 1h 23mn
    Bit rate mode                            : Constant
    Bit rate                                 : 384 Kbps
    Channel(s)                               : 6 channels
    Channel positions                        : Front: L C R, Side: L R, LFE
    Sampling rate                            : 48.0 KHz
    Bit depth                                : 16 bits
    Compression mode                         : Lossy
    Stream size                              : 230 MiB (7%)
    Language                                 : Russian
    Default                                  : Yes
    Forced                                   : No

    Menu
    00:00:00.000                             : en:Глава 1
    00:06:40.000                             : en:Глава 2
    00:10:27.000                             : en:Глава 3
    00:14:24.000                             : en:Глава 4
    00:18:23.000                             : en:Глава 5
    00:25:25.000                             : en:Глава 6
    00:30:39.000                             : en:Глава 7
    00:35:47.000                             : en:Глава 8
    00:41:37.000                             : en:Глава 9
    00:47:12.000                             : en:Глава 10
    00:52:54.000                             : en:Глава 11
    00:59:24.000                             : en:Глава 12
    01:04:57.000                             : en:Глава 13
    01:10:01.000                             : en:Глава 14
    01:15:27.000                             : en:Глава 15
    01:19:00.000                             : en:Глава 16

    Скриншоты:
    скриншот   скриншот   скриншот  


    © Оформление by Ворон
    pb.wtf



  • Скачать 8 новых свиданий через торрент https://pic1.kartinco.top/images/61/ordi9.jpg Скачать, смотреть онлайн 8 новых свиданий бесплантно в хорошем качестве Описание:Вера и Никита женаты 3 года. В разгар очередной радостной ссоры они обмениваются категоричными мнениями о том, какими должны быть ... 8.9 10 90
    Info! Золотая раздача, скачанное не засчитывается.
    Торрент: Зарегистрирован [2015-01-31 20:53] · скачан: 4 703 раз
    Статус: √ проверено
    Размер: 3.23 GB
    Как cкачать? Как скачать 8 новых свиданий через торрент | UTorrent

    % Раздел Тема Автор DL S | L
    Наши фильмы (DVD фильмы) [ 4.53 GB ] 8 новых свиданий [2015 DVD9] R5 voovaz Скачать
    1 | 0
    Наши фильмы 2014 [ 1.42 GB ] 8 новых свиданий [2014 Россия WEB-DLRip-AVC] От R.G. PiratFilms White Smoke Скачать
    1 | 0
    Наши фильмы 2014 [ 1.37 GB ] 8 новых свиданий [2014 WEB-DLRip Оригинал Ворон Скачать
    1 | 0
    T Наши фильмы (HD, WEB-DL 720p, 1080p) [ 2.72 GB ] 8 новых свиданий [2014 WEB-DL 720p Оригинал Anonymous Скачать
    1 | 0

    28-11-2019 20:33  

    Отключить всю рекламу на сайте

    31-01-2015 21:59 8 новых свиданий Скачать торрент  

    все 4 ,на обложки пип пип)pb.wtf



    01-02-2015 14:37 8 новых свиданий Скачать торрент  

    +5pb.wtf



    01-02-2015 17:13 8 новых свиданий Скачать торрент  

    6,65 на КП - не показатель, конечно, но оценим!)pb.wtf



    01-02-2015 17:19 8 новых свиданий Скачать торрент  

    очередная ватная галустянщина.....неочем(pb.wtf



      Дорогой пользователь! Огромная просьба, поблагодарите релизера, оцените раздачу и оставьте свои комментарий, если Вы скачали 8 новых свиданий через торрент бесплатно!
      Комментировать посты могут только пользователи прошедшие не сложную регистрацию
      Показать сообщения:    

      8 новых свиданий через торрент
      Скачать бесплатно 8 новых свиданий
      8 новых свиданий скачать торрент
      8 новых свиданий смотреть онлайн
      Cкачать фильм 8 новых свиданий бесплатно
      8 новых свиданий скачать торрент в хорошем качестве
      8 новых свиданий смотреть онлайн бесплатно в хорошем качестве


      Вы не можете начинать темы
      Вы не можете отвечать на сообщения
      Вы не можете редактировать свои сообщения
      Вы не можете удалять свои сообщения
      Вы не можете голосовать в опросах
      Вы не можете прикреплять файлы к сообщениям
      Вы можете скачивать файлы