Доктор Стрэндж

Лицензия

Добыча

Дубляж

Уэнсдэй

1 сезон

Тор

Дубляж

В эфире

Дубляж

Там, где раки поют

MVO

Властелин колец

1 сезон

Deluxe

pack

Рекомендуем

30

Пиратка

ВАЖНО

ВАЖНО

Ghostwire

Пиратка

jed

RePack

nioh2

RePack

RDR2

RePack

NEED FOR SPEED™ PAYBACK

RePack

скачать торрент

Кинопоиск HD

Острые козырьки 6 сезон

6 сезон

FAR CRY 6

RePack

скачать торрент

Лицензия

скачать торрент

MVO

1

1 сезон

скачать торрент

1 сезон

скачать торрент

Лицензия

  

Мажестик / The Majestic (Фрэнк Дарабонт) [2001, драма, BDRip 720p] Дубляж, MVO, DVO, AVO

Мажестик через торрент pb.wtf

Размер: 8.94 GB | Добавлен: 7 лет 10 мес. назад | Торрент скачан:45 раз
Смотреть онлайн | Скачать   

01-02-2015 07:46 Мажестик Скачать торрент  

Мажестик / The Majestic

Год выпуска: 2001
Страна: США
Жанр: драма
Продолжительность: 02:32:45
Перевод: дублированный, профессиональный многоголосый, профессиональный двухголосый, авторский
Субтитры: русские, английские (для слабослышащих)

Режиссёр: Фрэнк Дарабонт

В ролях: Джим Керри, Боб Балабан, Джеффри ДеМанн, Хэл Холбрук, Лори Холден, Мартин Ландау, Брент Бриско, Рон Рифкин, Джерри Блэк, Дэвид Огден Стирс, Джеймс Уитмор, Сьюзэн Уиллис, Кэтрин Дент, Брайан Хау, Карл Бари, Челси Росс, Аманда Детмер, Аллен Гарфилд, Дэниэл фон Барген, Шоун Дойл, Марио Роккуццо, Фрэнк Коллисон, Билл Грэттон, Джинджер Уильямс, Кен Маджи, Сцилла Хорват, Эйприл Ортиз, Ларри Кокс, Джули Ричардсон

Описание: История о человеке, ищущем самого себя. Питер, голливудский сценарист, случайно попадает в маленький городок Лоусон в Калифорнии: после автомобильной аварии он полностью теряет память. Его принимают за пропавшего без вести героя Второй мировой. Питер, который сам поверил в это, берётся за восстановление заброшенного городского кинотеатра. Невеста героя, которая ждала его несколько лет, также не замечает, что рядом с ней двойник. Прекрасная жизнь основана на прекрасном обмане. Но правда всё равно откроется…



Качество: BDRip 720p Сравнение с исходником
Формат: MKV
Видео кодек: H.264
Видео: 6516 Кбит/с, 1280x720, 23.976 кадра/с, 0.295 bpp
Аудио 1: русский, AC3, 640 kbps, 6 ch, 48 kHz [дублированный]
Аудио 2: русский, AC3, 192 kbps, 2 ch, 48 kHz [профессиональный многоголосый, PTP]
Аудио 3: русский, AC3, 192 kbps, 2 ch, 48 kHz [профессиональный двухголосый, Сергей Визгунов и Нина]
Аудио 4: русский, AC3, 224 kbps, 2 ch, 48 kHz [авторский, Сергей Визгунов]
Аудио 5: английский, AC3, 448 kbps, 6 ch, 48 kHz [оригинал]
Общее
Уникальный идентификатор : 209926603290275729052380917611523155369 (0x9DEE64A4D31AB6678D2638C5247725A9)
Полное имя : D:VideoMagestik.2001.BDRip.720p.mkv
Формат : Matroska
Версия формата : Version 4 / Version 2
Размер файла : 8,94 Гбайт
Продолжительность : 2 ч. 32 м.
Общий поток : 8378 Кбит/сек
Дата кодирования : UTC 2015-01-31 18:52:45
Программа кодирования : mkvmerge v7.5.0 ('Glass Culture') 64bit built on Jan 4 2015 16:48:44
Библиотека кодирования : libebml v1.3.1 + libmatroska v1.4.2
DURATION : 02:32:13.540000000
NUMBER_OF_FRAMES : 1482
NUMBER_OF_BYTES : 57651
_STATISTICS_WRITING_APP : mkvmerge v7.5.0 ('Glass Culture') 64bit built on Jan 4 2015 16:48:44
_STATISTICS_WRITING_DATE_UTC : 2015-01-31 18:52:45
_STATISTICS_TAGS : BPS DURATION NUMBER_OF_FRAMES NUMBER_OF_BYTES

Видео
Идентификатор : 1
Формат : AVC
Формат/Информация : Advanced Video Codec
Профиль формата : [email protected]
Параметр CABAC формата : Да
Параметр ReFrames формата : 9 кадров
Идентификатор кодека : V_MPEG4/ISO/AVC
Продолжительность : 2 ч. 32 м.
Битрейт : 6516 Кбит/сек
Ширина : 1280 пикселей
Высота : 720 пикселей
Соотношение сторон : 16:9
Режим частоты кадров : Постоянный
Частота кадров : 23,976 кадра/сек
Цветовое пространство : YUV
Субдискретизация насыщенности : 4:2:0
Битовая глубина : 8 бит
Тип развёртки : Прогрессивная
Бит/(Пиксели*Кадры) : 0.295
Размер потока : 6,95 Гбайт (78%)
Заголовок : BDRip -- STarankov
Библиотека кодирования : x264 core 142 r2431 ac76440
Настройки программы : cabac=1 / ref=9 / deblock=1:-1:-1 / analyse=0x3:0x113 / me=umh / subme=10 / psy=1 / psy_rd=1.00:0.15 / mixed_ref=1 / me_range=32 / chroma_me=1 / trellis=2 / 8x8dct=1 / cqm=0 / deadzone=21,11 / fast_pskip=1 / chroma_qp_offset=-3 / threads=6 / lookahead_threads=1 / sliced_threads=0 / nr=0 / decimate=1 / interlaced=0 / bluray_compat=0 / constrained_intra=0 / bframes=8 / b_pyramid=2 / b_adapt=2 / b_bias=0 / direct=3 / weightb=1 / open_gop=0 / weightp=2 / keyint=230 / keyint_min=23 / scenecut=40 / intra_refresh=0 / rc_lookahead=40 / rc=crf / mbtree=0 / crf=18.3 / qcomp=0.60 / qpmin=0 / qpmax=69 / qpstep=4 / vbv_maxrate=40000 / vbv_bufsize=50000 / crf_max=0.0 / nal_hrd=none / filler=0 / ip_ratio=1.40 / pb_ratio=1.30 / aq=1:1.00
Язык : English
Default : Да
Forced : Нет
DURATION : 02:32:44.155000000
NUMBER_OF_FRAMES : 219720
NUMBER_OF_BYTES : 7652163172
_STATISTICS_WRITING_APP : mkvmerge v7.5.0 ('Glass Culture') 64bit built on Jan 4 2015 16:48:44
_STATISTICS_WRITING_DATE_UTC : 2015-01-31 18:52:45
_STATISTICS_TAGS : BPS DURATION NUMBER_OF_FRAMES NUMBER_OF_BYTES

Аудио #1
Идентификатор : 2
Формат : AC-3
Формат/Информация : Audio Coding 3
Расширение режима : CM (complete main)
Параметр Endianness формата : Big
Идентификатор кодека : A_AC3
Продолжительность : 2 ч. 32 м.
Вид битрейта : Постоянный
Битрейт : 640 Кбит/сек
Каналы : 6 каналов
Расположение каналов : Front: L C R, Side: L R, LFE
Частота : 48,0 КГц
Битовая глубина : 16 бит
Метод сжатия : С потерями
Размер потока : 699 Мбайт (8%)
Заголовок : Дубляж
Язык : Russian
Default : Да
Forced : Нет

Аудио #2
Идентификатор : 3
Формат : AC-3
Формат/Информация : Audio Coding 3
Расширение режима : CM (complete main)
Параметр Endianness формата : Big
Идентификатор кодека : A_AC3
Продолжительность : 2 ч. 32 м.
Вид битрейта : Постоянный
Битрейт : 192 Кбит/сек
Каналы : 2 канала
Расположение каналов : Front: L R
Частота : 48,0 КГц
Битовая глубина : 16 бит
Метод сжатия : С потерями
Размер потока : 210 Мбайт (2%)
Заголовок : MVO (PTP)
Язык : Russian
Default : Нет
Forced : Нет

Аудио #3
Идентификатор : 4
Формат : AC-3
Формат/Информация : Audio Coding 3
Расширение режима : CM (complete main)
Параметр Endianness формата : Big
Идентификатор кодека : A_AC3
Продолжительность : 2 ч. 32 м.
Вид битрейта : Постоянный
Битрейт : 192 Кбит/сек
Каналы : 2 канала
Расположение каналов : Front: L R
Частота : 48,0 КГц
Битовая глубина : 16 бит
Метод сжатия : С потерями
Размер потока : 210 Мбайт (2%)
Заголовок : DVO (Сергей Визгунов и Нина)
Язык : Russian
Default : Нет
Forced : Нет

Аудио #4
Идентификатор : 5
Формат : AC-3
Формат/Информация : Audio Coding 3
Расширение режима : CM (complete main)
Параметр Endianness формата : Big
Идентификатор кодека : A_AC3
Продолжительность : 2 ч. 32 м.
Вид битрейта : Постоянный
Битрейт : 224 Кбит/сек
Каналы : 2 канала
Расположение каналов : Front: L R
Частота : 48,0 КГц
Битовая глубина : 16 бит
Метод сжатия : С потерями
Размер потока : 245 Мбайт (3%)
Заголовок : AVO (Сергей Визгунов)
Язык : Russian
Default : Нет
Forced : Нет

Аудио #5
Идентификатор : 6
Формат : AC-3
Формат/Информация : Audio Coding 3
Расширение режима : CM (complete main)
Параметр Endianness формата : Big
Идентификатор кодека : A_AC3
Продолжительность : 2 ч. 32 м.
Вид битрейта : Постоянный
Битрейт : 448 Кбит/сек
Каналы : 6 каналов
Расположение каналов : Front: L C R, Side: L R, LFE
Частота : 48,0 КГц
Битовая глубина : 16 бит
Метод сжатия : С потерями
Размер потока : 489 Мбайт (5%)
Заголовок : Original
Язык : English
Default : Нет
Forced : Нет

Текст #1
Идентификатор : 7
Формат : UTF-8
Идентификатор кодека : S_TEXT/UTF8
Идентификатор кодека/Информация : UTF-8 Plain Text
Заголовок : русский
Язык : Russian
Default : Нет
Forced : Нет

Текст #2
Идентификатор : 8
Формат : UTF-8
Идентификатор кодека : S_TEXT/UTF8
Идентификатор кодека/Информация : UTF-8 Plain Text
Заголовок : английский (для слабослышащих)
Default : Нет
Forced : Нет



Скачать Мажестик через торрент http://i58.fastpic.ru/big/2015/0201/9c/75c25cc2787898664395040eb3370a9c.jpg Скачать, смотреть онлайн Мажестик бесплантно в хорошем качестве Описание: История о человеке, ищущем самого себя. Питер, голливудский сценарист, случайно попадает в маленький городок Лоусон в Калифорнии: ... 10 10 1
Торрент: Зарегистрирован [2015-02-01 07:46] · скачан: 45 раз
Статус: √ проверено
Размер: 8.94 GB
Как cкачать? Как скачать Мажестик через торрент | UTorrent

28-11-2019 20:33  


Отключить вcю реклaмy на сайте, в т.ч. и в плеере онлайн просмотра!

    Дорогой пользователь! Огромная просьба, поблагодарите релизера, оцените раздачу и оставьте свои комментарий, если Вы скачали Мажестик через торрент бесплатно!!
    Комментировать посты могут только пользователи прошедшие не сложную регистрацию
    Показать сообщения:    


    Мажестик через торрент
    Скачать бесплатно Мажестик
    Мажестик скачать торрент
    Мажестик смотреть онлайн
    Cкачать фильм Мажестик бесплатно
    Мажестик скачать торрент в хорошем качестве
    Мажестик смотреть онлайн бесплатно в хорошем качестве
    Вы не можете начинать темы
    Вы не можете отвечать на сообщения
    Вы не можете редактировать свои сообщения
    Вы не можете удалять свои сообщения
    Вы не можете голосовать в опросах
    Вы не можете прикреплять файлы к сообщениям
    Вы можете скачивать файлы
    Мажестик / The Majestic [2001, драма, BDRip 720p] Дубляж, MVO, DVO, AVO смотреть онлайн, скачать торрент picoco.icu