Ссылка на приватное зеркало нашего сайта всего за 1$. Внимание количество ограничено!!!

2 сезон

iTunes

1 сезон

1

2 сезон

2 сезон

iTunes

1 сезон

RePack

30

Ultimate

ВАЖНО

ИГРА 18+

pack

RePack

MK11
pack

Забери бонус

RePack

jed

!!Акция!!

Alien_Rage

RePack

fifa19

RePack

Assassins Creed: Odyssey

RePack

NEED FOR SPEED™ PAYBACK

4 сезон

9 сезон

Бесстыжие 9 сезон

Все сериалы

все сериалы на PB.wtf

RePack

FAR CRY 5
  

Новый День / Day Break / Сезон: 1 / Серии 1-13(13)(Роб Боумен, Брайан Спайсер, Фредерик Кинг Келлер) [2006 г., боевик, драма, триллер, HDTVRip 720p]MVO(ТВ3)+Original pb.wtf

Новый День через торрент pb.wtf

Размер: 20.65 GB | Добавлен: 5 лет 10 мес. назад | Торрент скачан:50 раз
Скачать  

01-02-2015 12:09 Новый День Скачать торрент  

Новый День / Day Break
Год выпуска: 2006
Страна: США
Жанр: боевик, драма, триллер
Продолжительность: ~ 00:44:00
Перевод: Профессиональный многоголосый (ТВ3)

Режиссер: Роб Боумен, Брайан Спайсер, Фредерик Кинг Келлер




В ролях: Тэй Диггз, Мун Блудгуд, Виктория Прэтт, Мета Голдинг, Рамон Родригес, Адам Болдуин

Описание: Был ли у Вас в жизни день настолько плохой, что вам хотелось, чтобы он побыстрее закончился? День, когда ничего не получается и все идет наперекосяк. А что, если бы этот день не кончался… В прямом смысле этого слова…
Сегодня, Детектив Бретт Хоппер будет осуждён за убийство помощника окружного прокурора Альберто Гарза. У него будет стопроцентное алиби. Он поймёт, что его подставили… И пустится в бега. Утром он проснётся и всё произойдёт с самого начала, только в этот раз — он поступит иначе. События будут повторяться до тех пор, пока он не выяснит, кто его подставил, и не спасёт своих близких. У Хоппера есть одно преимущество — он помнит все события прошедших дней... Это нелегко, потому что и раны не заживают.


Качество: HDTVRip 720p
Формат: MKV
Видео кодек: AVC
Аудио кодек: AC3
Видео: 1280x720 (16:9), 25.000 fps, 5 000 Kbps (0.217 bit/pixel)
Аудио#1: 48.0 KHz, 2 ch, 192 Kbps, CBR (Russian)
Аудио#2: 48.0 KHz, 2 ch, 384 Kbps, CBR (English)
скриншот   скриншот   скриншот   скриншот   скриншот   скриншот  

General
Unique ID : 251156242902136214806080432953972173289 (0xBCF2EED20B020B1683364971085729E9)
Complete name : G:\Сериалы\Новый День Day Break\Day break.HDTV.720p\Day Break S01E01 Pilot.mkv
Format : Matroska
Format version : Version 2
File size : 1.58 GiB
Duration : 41mn 3s
Overall bit rate : 5 506 Kbps
Encoded date : UTC 2010-05-30 08:22:27
Writing application : mkvmerge v3.2.0 ('Beginnings') built on Feb 12 2010 16:46:17
Writing library : libebml v0.7.9 + libmatroska v0.8.1

Video
ID : 1
Format : AVC
Format/Info : Advanced Video Codec
Format profile : High@L4.1
Format settings, CABAC : Yes
Format settings, ReFrames : 7 frames
Codec ID : V_MPEG4/ISO/AVC
Duration : 41mn 3s
Bit rate : 5 000 Kbps
Width : 1 280 pixels
Height : 720 pixels
Display aspect ratio : 16:9
Frame rate mode : Constant
Frame rate : 25.000 fps
Color space : YUV
Chroma subsampling : 4:2:0
Bit depth : 8 bits
Scan type : Progressive
Bits/(Pixel*Frame) : 0.217
Stream size : 1.38 GiB (88%)
Writing library : x264 core 78 r1310 ec46ace
Encoding settings : cabac=1 / ref=7 / deblock=1:-1:-1 / analyse=0x3:0x113 / me=umh / subme=7 / psy=1 / psy_rd=1.0:0.0 / mixed_ref=1 / me_range=16 / chroma_me=1 / trellis=0 / 8x8dct=1 / cqm=0 / deadzone=21,11 / chroma_qp_offset=-2 / threads=6 / nr=0 / decimate=1 / mbaff=0 / constrained_intra=0 / bframes=4 / b_pyramid=0 / b_adapt=1 / b_bias=0 / direct=3 / wpredb=1 / keyint=250 / keyint_min=25 / scenecut=40 / rc_lookahead=40 / rc=2pass / mbtree=1 / bitrate=5000 / ratetol=1.0 / qcomp=0.60 / qpmin=10 / qpmax=51 / qpstep=4 / cplxblur=20.0 / qblur=0.5 / vbv_maxrate=50000 / vbv_bufsize=50000 / ip_ratio=1.40 / aq=1:1.00
Language : English
Default : No
Forced : No

Audio #1
ID : 2
Format : AC-3
Format/Info : Audio Coding 3
Format profile : Dolby Digital
Mode extension : CM (complete main)
Format settings, Endianness : Big
Codec ID : A_AC3
Duration : 41mn 3s
Bit rate mode : Constant
Bit rate : 192 Kbps
Channel(s) : 2 channels
Channel positions : Front: L R
Sampling rate : 48.0 KHz
Bit depth : 16 bits
Compression mode : Lossy
Stream size : 56.4 MiB (3%)
Language : Russian
Default : Yes
Forced : No

Audio #2
ID : 3
Format : AC-3
Format/Info : Audio Coding 3
Format profile : Dolby Digital
Mode extension : CM (complete main)
Format settings, Endianness : Big
Codec ID : A_AC3
Duration : 41mn 3s
Bit rate mode : Constant
Bit rate : 384 Kbps
Channel(s) : 2 channels
Channel positions : Front: L R
Sampling rate : 48.0 KHz
Bit depth : 16 bits
Compression mode : Lossy
Stream size : 113 MiB (7%)
Language : English
Default : No
Forced : No

pb.wtf



Скачать Новый День через торрент http://pic.kartinco.top/images/8/42bjy.jpg Скачать фильм Новый День через торрент бесплантно в хорошем качестве Описание: Был ли у Вас в жизни день настолько плохой, что вам хотелось, чтобы он побыстрее закончился? День, когда ничего не получается и ... 9.8 10 8
Торрент: Зарегистрирован [2015-02-01 12:09] · скачан: 50 раз
Статус: √ проверено
Размер: 20.65 GB
Как cкачать? Как скачать Новый День через торрент | qTorrent

28-11-2019 20:33  

Отключить всю рекламу на сайте

01-02-2015 15:52 Новый День Скачать торрент  

Классный сериалpb.wtf



01-02-2015 16:44 Новый День Скачать торрент  

Ооооочень классный, смотрел два раза.pb.wtf



    Дорогой пользователь! Огромная просьба, поблагодарите релизера, оцените раздачу и оставьте свои комментарий, если Вы скачали Новый День через торрент бесплатно! Внесите свою лепту в развитие PiratBit!
    Комментировать посты могут только пользователи прошедшие не сложную регистрацию
    Показать сообщения:    

    Новый День через торрент
    Скачать бесплатно Новый День
    Новый День скачать торрент
    Новый День смотреть онлайн
    Cкачать фильм Новый День бесплатно
    Новый День скачать торрент в хорошем качестве
    Новый День смотреть онлайн бесплатно в хорошем качестве


    Вы не можете начинать темы
    Вы не можете отвечать на сообщения
    Вы не можете редактировать свои сообщения
    Вы не можете удалять свои сообщения
    Вы не можете голосовать в опросах
    Вы не можете прикреплять файлы к сообщениям
    Вы можете скачивать файлы