1 сезон

1 сезон

iTunes

1

КиноПоиск HD

Кинопоиск HD

iTunes

13

1 сезон

RePack

30

Ultimate

ВАЖНО

ИГРА 18+

pack

RePack

MK11
pack

Легкие деньги

RePack

jed

RePack

fifa19

RePack

RDR2

RePack

NEED FOR SPEED™ PAYBACK

4 сезон

9 сезон

Бесстыжие 9 сезон

Все сериалы

все сериалы на PB.wtf

RePack

FAR CRY 5
  
Magnet ссылка

Штат одинокой звезды / Lone Star State of Mind (Дэвид Семел) [2002 г., Криминал / Комедия, DVDRip] MVO pb.wtf

Штат одинокой звезды через торрент pb.wtf

Размер: 679 MB | Добавлен: 6 лет 2 мес. назад | Торрент скачан:29 раз
Скачать  

01-02-2015 13:33 Штат одинокой звезды Скачать торрент  


Штат одинокой звезды / Lone Star State of Mind


Информация:
Год выпуска:2002
Страна: США
Жанр:комедия, криминал
Продолжительность01:24:28
Перевод:Профессиональный (многоголосый)
Режиссер:Дэвид Семел

В ролях:

Джошуа Джексон (Earl Crest), Джейми Кинг (Baby), Мэттью Дэвис (Jimbo), Райан Херст (Tinker), Джон Мелленкамп (Wayne), DJ Куаллс (Junior), Сэм МакМюррей (Mr. Smith), Томас Хейден Чёрч (Killer), Джулиан Дульсе Вида (Vasquez), Элизабет Барондес (Smyrna), Роджер Бойс (Sheriff Andy), Элис Лестер (Marie)

Описание:
Когда Господь создавал Техас, то он явно был не в ударе. По крайней мере, так считают влюбленные друг в друга Эрл и Бэби. Выросшие в самом обычном городишке этого штата они только и мечтают, как бы побыстрее слинять отсюда. И конечно в Калифорнию, в Лос-Анджелес, где можно попытать счастья стать богатыми и знаменитыми! Увы все эти грандиозные планы героев упираются в тупик имя которому - Джуниор, кузен Бэби.
Этот чудак умеет влипать в неприятности как никто другой. И как никто другой - втягивать в свои проблемы других. Не успевают наши голубки и глазом моргнуть, как оказываются по уши увязшими в аферах Джуниора. И если в течение 48 часов им не удастся выпутаться из них и выпутать кузена, то Эрл и Бэби могут забыть о своих планах насчет Лос-Анджелеса...


Тех.Данные:
Качество: DVDRip
Формат:AVI
Видео кодек: DivX 4
Аудио кодек:MP3
Видео: DivX 4, 640x272 (2.35:1), 985 kbps, 25 fps, 0,216 bpp
Аудио: MP3 / 2.0 / 44 kHz / 128 kbps /

Код:

General
Complete name                            : D:\Торенты\Штат_одинокой_звезды[torrents.ru].AVI
Format                                   : AVI
Format/Info                              : Audio Video Interleave
File size                                : 679 MiB
Duration                                 : 1h 24mn
Overall bit rate                         : 1 123 Kbps
Writing library                          : VirtualDub build 13130/release

Video
ID                                       : 0
Format                                   : MPEG-4 Visual
Format settings, BVOP                    : Yes
Format settings, QPel                    : No
Format settings, GMC                     : No warppoints
Format settings, Matrix                  : Default (H.263)
Codec ID                                 : DIVX
Codec ID/Info                            : Project Mayo
Codec ID/Hint                            : DivX 4
Duration                                 : 1h 24mn
Bit rate                                 : 985 Kbps
Width                                    : 640 pixels
Height                                   : 272 pixels
Display aspect ratio                     : 2.35:1
Frame rate                               : 25.000 fps
Color space                              : YUV
Chroma subsampling                       : 4:2:0
Bit depth                                : 8 bits
Scan type                                : Progressive
Compression mode                         : Lossy
Bits/(Pixel*Frame)                       : 0.216
Stream size                              : 569 MiB (84%)

Audio
ID                                       : 1
Format                                   : MPEG Audio
Format version                           : Version 1
Format profile                           : Layer 3
Mode                                     : Joint stereo
Mode extension                           : MS Stereo
Codec ID                                 : 55
Codec ID/Hint                            : MP3
Duration                                 : 1h 24mn
Bit rate mode                            : Constant
Bit rate                                 : 128 Kbps
Channel(s)                               : 2 channels
Sampling rate                            : 44.1 KHz
Compression mode                         : Lossy
Stream size                              : 77.3 MiB (11%)
Alignment                                : Split accross interleaves

Скриншоты:




© Оформление by Ворон
pb.wtf



Скачать Штат одинокой звезды через торрент https://pic.kartinco.top/images/6/ordi9.jpg Скачать фильм Штат одинокой звезды через торрент бесплантно в хорошем качестве Год выпуска:2002 Страна: США Жанр:комедия, криминал Продолжительность01:24:28 Перевод:Профессиональный () ... 10 10 6
Info! Золотая раздача, скачанное не засчитывается.
Торрент: Зарегистрирован [2015-02-01 13:33] · скачан: 29 раз
Статус: √ проверено
Размер: 679 MB
Как cкачать? Как скачать Штат одинокой звезды через торрент | UTorrent

% Раздел Тема Автор DL S | L
Фильмы (WEB-DL 720p, 1080p) [ 6.61 GB ] Штат одинокой звезды / Lone Star State of Mind [2002 г WEBRip 1080p] MVO koenig Скачать
1 | 0
Фильмы 2001-2005 [ 1.45 GB ] Штат одинокой звезды / Lone Star State of Mind [2002 г WEBRip] MVO koenig Скачать
1 | 0

28-11-2019 20:33  

Отключить всю рекламу на сайте


01-02-2015 16:46 Штат одинокой звезды Скачать торрент  

ОГРОМНОЕ СПАСИБО! Фильм просто супер!pb.wtf



02-02-2015 19:17 Штат одинокой звезды Скачать торрент  

не плохой фильм, хотя конечно американский тупизм сильно присутствуетpb.wtf



    Дорогой пользователь! Огромная просьба, поблагодарите релизера, оцените раздачу и оставьте свои комментарий, если Вы скачали Штат одинокой звезды через торрент бесплатно! Внесите свою лепту в развитие PiratBit!
    Комментировать посты могут только пользователи прошедшие не сложную регистрацию
    Показать сообщения:    

    Штат одинокой звезды через торрент
    Скачать бесплатно Штат одинокой звезды
    Штат одинокой звезды скачать торрент
    Штат одинокой звезды смотреть онлайн
    Cкачать фильм Штат одинокой звезды бесплатно
    Штат одинокой звезды скачать торрент в хорошем качестве
    Штат одинокой звезды смотреть онлайн бесплатно в хорошем качестве


    Вы не можете начинать темы
    Вы не можете отвечать на сообщения
    Вы не можете редактировать свои сообщения
    Вы не можете удалять свои сообщения
    Вы не можете голосовать в опросах
    Вы не можете прикреплять файлы к сообщениям
    Вы можете скачивать файлы