Ссылка на приватное зеркало нашего сайта всего за 1$. Внимание количество ограничено!!!

2 сезон

iTunes

1 сезон

1

iTunes

iTunes

iTunes

1 сезон

RePack

30

ИГРА 18+

pack

ВАЖНО

!!Акция!!

Alien_RageХит недели

RePack

MK11
pack

Забери бонус

RePack

jed

!!Акция!!

Alien_Rage

RePack

fifa19

RePack

Assassins Creed: Odyssey

RePack

NEED FOR SPEED™ PAYBACK

4 сезон

9 сезон

Бесстыжие 9 сезон

Все сериалы

все сериалы на PB.wtf

RePack

FAR CRY 5
  

Непристойное предложение / Indecent Proposal (Эдриан Лайн) [1993, драма, мелодрама, BDRip 1080p] MVO, DVO, AVO от NNNB pb.wtf

Непристойное предложение через торрент pb.wtf

Размер: 11.52 GB | Добавлен: 5 лет 8 мес. назад | Торрент скачан:98 раз
Скачать  

01-02-2015 17:08 Непристойное предложение Скачать торрент  

Информация о фильме

Русское название: Непристойное предложение
Оригинальное название: Indecent Proposal
Год выхода: 1993
Жанр: драма, мелодрама
Режиссер: Эдриан Лайн
Выпущено: США
Продолжительность: 01:56:58
Перевод: Профессиональный (многоголосый, закадровый), Профессиональный (двехголосый, закадровый), Авторский (Л.Володарский) (А.Гаврилов)
В ролях: Роберт Редфорд, Деми Мур, Вуди Харрельсон, Сеймур Кэссел, Оливер Плэтт, Билли Боб Торнтон, Рип Тейлор, Билли Коннолли, Джоэль Брукс, Пьер Эпштейн, Дэни Зом, Кевин Вест, Памела Холл, Томми Баш, Мэриклэр Костелло


Сюжет фильма

Как вы отнесетесь к непристойному предложению? Вам предлагается миллион долларов всего за одну ночь с вашей женой. Никаких лишних вопросов. Никаких обид. Никакого обмана. Все ваши финансовые вопросы будут решены в одно мгновение. Все ваши неосуществимые мечты станут реальностью. Как вы сами понимаете, речь идет об очень больших деньгах. Одна ночь с вашей женой. Согласны? Именно с такой дилеммой столкнулся архитектор Дэйвид Мерфи, после того, как миллиардер-финансист, очарованный красотой его супруги Дайэны, сделал предложение, от которого почти невозможно отказаться. Одна ночь с Дайэной — миллион долларов! Смогут ли молодые люди пойти на эту сделку? Готовы ли они заплатить столь большую цену за столь большие деньги?


Файл

Формат: AVC (библиотека кодирования x.264)
Контейнер (Расширение): MKV
Видео кодек: AVC
Аудио кодек:AC3
Качество: BDRip 1080p (исходник Blu-ray Disc Remux) (Спасибо, URALMIX)
Видео: 1920x1080, 11121 Кбит/сек, 23,976 кадр/сек, AVC, x264, High@L4.1, 16:9, 0.224 Бит/[Пиксели*Кадры]
Аудио 1: AC-3, 448 Кбит/сек, 6 канала(ов), 48,0 КГц - Двухголосый закадровый, НТВ+ / Русский *
Аудио 2: AC-3, 384 Кбит/сек, 6 канала(ов), 48,0 КГц - Многоголосый закадровый, НТВ+ по заказу НТВ / Русский **
Аудио 3: AC-3, 448 Кбит/сек, 6 канала(ов), 48,0 КГц - Многоголосый закадровый / Русский ***
Аудио 4: AC-3, 448 Кбит/сек, 6 канала(ов), 48,0 КГц - Многоголосый закадровый, R5 / Русский
Аудио 5: AC-3, 192 Кбит/сек, 2 канала(ов), 48,0 КГц - Многоголосый закадровый / Русский
Аудио 6: AC-3, 192 Кбит/сек, 2 канала(ов), 48,0 КГц - Одноголосый закадровый, Л.Володарский / Русский
Аудио 7: AC-3, 448 Кбит/сек, 6 канала(ов), 48,0 КГц - Одноголосый закадровый, А.Гаврилов / Русский
Аудио 8: AC-3, 448 Кбит/сек, 6 канала(ов), 48,0 КГц - Оригинал / Английский
Субтитры: Русские | Полные, Английские | Полные
Форсированные субтитры: Нет
Чаптеры (Главы): Есть









Автор Рипа: Сообщество:


Код:

Format                                   : Matroska
Format version                           : Version 2
File size                                : 11.5 GiB
Duration                                 : 1h 56mn
Overall bit rate                         : 14.1 Mbps
Movie name                               : Непристойное предложение.(1993).BDRip.1080p.[envy]
Encoded date                             : UTC 2015-02-01 10:04:08
Writing application                      : mkvmerge v5.8.0 ('No Sleep / Pillow') built on Sep  2 2012 15:37:04
Writing library                          : libebml v1.2.3 + libmatroska v1.3.0

Video
ID                                       : 1
Format                                   : AVC
Format/Info                              : Advanced Video Codec
Format profile                           : High@L4.1
Format settings, CABAC                   : Yes
Format settings, ReFrames                : 4 frames
Codec ID                                 : V_MPEG4/ISO/AVC
Duration                                 : 1h 56mn
Bit rate                                 : 11.1 Mbps
Width                                    : 1 920 pixels
Height                                   : 1 080 pixels
Display aspect ratio                     : 16:9
Frame rate mode                          : Constant
Frame rate                               : 23.976 fps
Color space                              : YUV
Chroma subsampling                       : 4:2:0
Bit depth                                : 8 bits
Scan type                                : Progressive
Bits/(Pixel*Frame)                       : 0.224
Stream size                              : 8.84 GiB (77%)
Title                                    : Непристойное предложение.(1993).BDRip.1080p.[envy]
Writing library                          : x264 core 144 r2525 40bb568
Encoding settings                        : cabac=1 / ref=4 / deblock=1:-3:-2 / analyse=0x3:0x113 / me=umh / subme=11 / psy=1 / psy_rd=1.00:0.00 / mixed_ref=1 / me_range=32 / chroma_me=1 / trellis=2 / 8x8dct=1 / cqm=0 / deadzone=21,11 / fast_pskip=0 / chroma_qp_offset=-2 / threads=12 / lookahead_threads=2 / sliced_threads=0 / nr=0 / decimate=1 / interlaced=0 / bluray_compat=0 / constrained_intra=0 / bframes=8 / b_pyramid=2 / b_adapt=2 / b_bias=0 / direct=3 / weightb=1 / open_gop=0 / weightp=2 / keyint=240 / keyint_min=23 / scenecut=40 / intra_refresh=0 / rc=2pass / mbtree=0 / bitrate=11121 / ratetol=2.0 / qcomp=0.60 / qpmin=0 / qpmax=69 / qpstep=4 / cplxblur=20.0 / qblur=0.5 / ip_ratio=1.40 / pb_ratio=1.30 / aq=2:0.90
Language                                 : English
Default                                  : Yes
Forced                                   : No

Audio #1
ID                                       : 2
Format                                   : AC-3
Format/Info                              : Audio Coding 3
Mode extension                           : CM (complete main)
Format settings, Endianness              : Big
Codec ID                                 : A_AC3
Duration                                 : 1h 56mn
Bit rate mode                            : Constant
Bit rate                                 : 448 Kbps
Channel(s)                               : 6 channels
Channel positions                        : Front: L C R, Side: L R, LFE
Sampling rate                            : 48.0 KHz
Bit depth                                : 16 bits
Compression mode                         : Lossy
Stream size                              : 375 MiB (3%)
Title                                    : НТВ+
Language                                 : Russian
Default                                  : Yes
Forced                                   : No

Audio #2
ID                                       : 3
Format                                   : AC-3
Format/Info                              : Audio Coding 3
Mode extension                           : CM (complete main)
Format settings, Endianness              : Big
Codec ID                                 : A_AC3
Duration                                 : 1h 56mn
Bit rate mode                            : Constant
Bit rate                                 : 384 Kbps
Channel(s)                               : 6 channels
Channel positions                        : Front: L C R, Side: L R, LFE
Sampling rate                            : 48.0 KHz
Bit depth                                : 16 bits
Compression mode                         : Lossy
Stream size                              : 321 MiB (3%)
Title                                    : НТВ+/НТВ
Language                                 : Russian
Default                                  : No
Forced                                   : No

Audio #3
ID                                       : 4
Format                                   : AC-3
Format/Info                              : Audio Coding 3
Mode extension                           : CM (complete main)
Format settings, Endianness              : Big
Codec ID                                 : A_AC3
Duration                                 : 1h 56mn
Bit rate mode                            : Constant
Bit rate                                 : 448 Kbps
Channel(s)                               : 6 channels
Channel positions                        : Front: L C R, Side: L R, LFE
Sampling rate                            : 48.0 KHz
Bit depth                                : 16 bits
Compression mode                         : Lossy
Stream size                              : 375 MiB (3%)
Title                                    : MVO
Language                                 : Russian
Default                                  : No
Forced                                   : No

Audio #4
ID                                       : 5
Format                                   : AC-3
Format/Info                              : Audio Coding 3
Mode extension                           : CM (complete main)
Format settings, Endianness              : Big
Codec ID                                 : A_AC3
Duration                                 : 1h 56mn
Bit rate mode                            : Constant
Bit rate                                 : 448 Kbps
Channel(s)                               : 6 channels
Channel positions                        : Front: L C R, Side: L R, LFE
Sampling rate                            : 48.0 KHz
Bit depth                                : 16 bits
Compression mode                         : Lossy
Stream size                              : 375 MiB (3%)
Title                                    : MVO R5
Language                                 : Russian
Default                                  : No
Forced                                   : No

Audio #5
ID                                       : 6
Format                                   : AC-3
Format/Info                              : Audio Coding 3
Mode extension                           : CM (complete main)
Format settings, Endianness              : Big
Codec ID                                 : A_AC3
Duration                                 : 1h 56mn
Bit rate mode                            : Constant
Bit rate                                 : 192 Kbps
Channel(s)                               : 2 channels
Channel positions                        : Front: L R
Sampling rate                            : 48.0 KHz
Bit depth                                : 16 bits
Compression mode                         : Lossy
Stream size                              : 161 MiB (1%)
Title                                    : MVO
Language                                 : Russian
Default                                  : No
Forced                                   : No

Audio #6
ID                                       : 7
Format                                   : AC-3
Format/Info                              : Audio Coding 3
Mode extension                           : CM (complete main)
Format settings, Endianness              : Big
Codec ID                                 : A_AC3
Duration                                 : 1h 56mn
Bit rate mode                            : Constant
Bit rate                                 : 192 Kbps
Channel(s)                               : 2 channels
Channel positions                        : Front: L R
Sampling rate                            : 48.0 KHz
Bit depth                                : 16 bits
Compression mode                         : Lossy
Stream size                              : 161 MiB (1%)
Title                                    : Volodarskij
Language                                 : Russian
Default                                  : No
Forced                                   : No

Audio #7
ID                                       : 8
Format                                   : AC-3
Format/Info                              : Audio Coding 3
Mode extension                           : CM (complete main)
Format settings, Endianness              : Big
Codec ID                                 : A_AC3
Duration                                 : 1h 56mn
Bit rate mode                            : Constant
Bit rate                                 : 448 Kbps
Channel(s)                               : 6 channels
Channel positions                        : Front: L C R, Side: L R, LFE
Sampling rate                            : 48.0 KHz
Bit depth                                : 16 bits
Compression mode                         : Lossy
Stream size                              : 375 MiB (3%)
Title                                    : Gavrilov
Language                                 : Russian
Default                                  : No
Forced                                   : No

Audio #8
ID                                       : 9
Format                                   : AC-3
Format/Info                              : Audio Coding 3
Mode extension                           : CM (complete main)
Format settings, Endianness              : Big
Codec ID                                 : A_AC3
Duration                                 : 1h 56mn
Bit rate mode                            : Constant
Bit rate                                 : 448 Kbps
Channel(s)                               : 6 channels
Channel positions                        : Front: L C R, Side: L R, LFE
Sampling rate                            : 48.0 KHz
Bit depth                                : 16 bits
Compression mode                         : Lossy
Stream size                              : 375 MiB (3%)
Title                                    : Eng
Language                                 : English
Default                                  : No
Forced                                   : No

Text #1
ID                                       : 10
Format                                   : UTF-8
Codec ID                                 : S_TEXT/UTF8
Codec ID/Info                            : UTF-8 Plain Text
Title                                    : full
Language                                 : Russian
Default                                  : No
Forced                                   : No

Text #2
ID                                       : 11
Format                                   : UTF-8
Codec ID                                 : S_TEXT/UTF8
Codec ID/Info                            : UTF-8 Plain Text
Title                                    : full
Language                                 : English
Default                                  : No
Forced                                   : No

Menu
00:00:00.000                             : en:00:00:00.000
00:09:48.421                             : en:00:09:48.421
00:22:06.366                             : en:00:22:06.366
00:29:20.717                             : en:00:29:20.717
00:37:21.112                             : en:00:37:21.112
00:41:56.347                             : en:00:41:56.347
00:45:02.741                             : en:00:45:02.741
00:57:48.673                             : en:00:57:48.673
01:07:27.585                             : en:01:07:27.585
01:15:33.862                             : en:01:15:33.862
01:21:58.079                             : en:01:21:58.079
01:32:54.277                             : en:01:32:54.277
01:38:19.143                             : en:01:38:19.143
01:44:49.157                             : en:01:44:49.157
01:48:57.280                             : en:01:48:57.280
01:52:17.479                             : en:01:52:17.479

* - текст читали Игорь Тарадайкин и Наталья Казначеева
** - текст читали Александр Рахленко, Дмитрий Полонский и др.
*** - текст читали Андрей Градов, Алексей Борзунов, Ирина Маликова
Самые распространенные форматы изображения:
pb.wtf



Скачать Непристойное предложение через торрент http://www.firepic.org/images/2015-02/01/l19pwguidtf2.png Скачать фильм Непристойное предложение через торрент бесплантно в хорошем качестве В ролях: Роберт Редфорд, Деми Мур, Вуди Харрельсон, Сеймур Кэссел, Оливер Плэтт, Билли Боб Торнтон, Рип Тейлор, Билли Коннолли, Джоэль ... 10 10 5
Info! Золотая раздача, скачанное не засчитывается.
Торрент: Зарегистрирован [2015-02-01 17:08] · скачан: 98 раз
Статус: √ проверено
Размер: 11.52 GB
Как cкачать? Как скачать Непристойное предложение через торрент | qTorrent

28-11-2019 20:33  

Отключить всю рекламу на сайте

01-02-2015 20:22 Непристойное предложение Скачать торрент  

просто, просто МЕГА фильм! после просмотра с женой долго спорили по "тому же" поводу. Спасибо!!!pb.wtf



    Дорогой пользователь! Огромная просьба, поблагодарите релизера, оцените раздачу и оставьте свои комментарий, если Вы скачали Непристойное предложение через торрент бесплатно! Внесите свою лепту в развитие PiratBit!
    Комментировать посты могут только пользователи прошедшие не сложную регистрацию
    Показать сообщения:    

    Непристойное предложение через торрент
    Скачать бесплатно Непристойное предложение
    Непристойное предложение скачать торрент
    Непристойное предложение смотреть онлайн
    Cкачать фильм Непристойное предложение бесплатно
    Непристойное предложение скачать торрент в хорошем качестве
    Непристойное предложение смотреть онлайн бесплатно в хорошем качестве


    Вы не можете начинать темы
    Вы не можете отвечать на сообщения
    Вы не можете редактировать свои сообщения
    Вы не можете удалять свои сообщения
    Вы не можете голосовать в опросах
    Вы не можете прикреплять файлы к сообщениям
    Вы можете скачивать файлы