Ссылка на приватное зеркало всего за 1$. Внимание количество ограничено!!!

iTunes

iTunes

iTunes

1

iTunes

iTunes

iTunes

iTunes

iTunes

30
pack

$ от Little Big

ВАЖНО

!!Акция!!

Alien_RageХит недели

RePack

Resident Evil 21

ИГРА 18+

pack

RePack

jed

!!Акция!!

Alien_Rage

RePack

fifa19

RePack

Assassins Creed: Odyssey

RePack

NEED FOR SPEED™ PAYBACK

4 сезон

9 сезон

Бесстыжие 9 сезон

Все сериалы

все сериалы на PB.wtf

RePack

FAR CRY 5
  

Внутренние демоны / Inner Demons (Сет Гроссман ) [2014, ужасы, WEB-DL 1080p, Любительский (одноголосый) [PashaUp] pb.wtf

Внутренние демоны через торрент pb.wtf

Размер: 3.04 GB | Добавлен: 5 лет 5 мес. назад | Торрент скачан:77 раз
Скачать  

01-02-2015 20:26 Внутренние демоны Скачать торрент  


Внутренние демоны / Inner Demons
«Exorcise caution»

Информация:
Год выпуска:2014
Страна: США
Жанр:ужасы
Продолжительность01:23:33
Перевод:Любительский (одноголосый)
Субтитры: русские, русские (tolmakoff),
Режиссер:Сет Гроссман

В ролях:


Лара Восберг (Carson Morris), Морган МакКлеллан (Jason Hurwitz), Кейт Уитни (Suzanne Tully), Брайан Флаэрти (Tim), Коллин МакГрэнн (Beth Morris), Кристофер Паркер (Steve Morris), Эшли Саттон (McKee Littlefield), Сьюзэн Атех (Nurse Shanti), Ричард Уилкинсон (Dr. Dean Pretiss), Сьюэлл Уитни (Reverend Foley), John Cragen (Dr. Kordis), Адриан Гаета (Eric)

Описание:
История о шестнадцатилетней девушке, бывшей отличнице, которая борется с наркозависимостью, но на самом деле страдает от чего-то куда более разрушительного...


Тех.Данные:
Качество: WEB-DL 1080p
Формат:MKV
Видео кодек: AVC
Аудио кодек:AC3
Видео: AVC, 1920x1028 (1.868), 4531 kbps, 23,976 fps, 0,096 bpp
Аудио №1: русский / AC3 / 2.0 / 48 kHz / 192 kbps / 16 bit ||
Аудио №2: английский / AC3 / 5.1 / 48 kHz / 384 kbps / 16 bit
Навигация по главам: есть


Код:

General
Unique ID                                : 237238185662673549263165703688166811892 (0xB27A699E514B36D8A8C33C203503A8F4)
Complete name                            : D:\Торенты\Inner.Demons.2014.WEB-DL.1080p.CINEMANIA.mkv
Format                                   : Matroska
Format version                           : Version 4 / Version 2
File size                                : 3.04 GiB
Duration                                 : 1h 23mn
Overall bit rate                         : 5 211 Kbps
Movie name                               : RARBG.COM - Inner.Demons.2014.1080p.WEB-DL.DD5.1.H264-RARBG
Encoded date                             : UTC 2015-02-01 17:31:07
Writing application                      : mkvmerge v7.5.0 ('Glass Culture') 64bit built on Jan  4 2015 16:48:44
Writing library                          : libebml v1.3.1 + libmatroska v1.4.2

Video
ID                                       : 1
Format                                   : AVC
Format/Info                              : Advanced Video Codec
Format profile                           : High@L4.0
Format settings, CABAC                   : Yes
Format settings, ReFrames                : 4 frames
Codec ID                                 : V_MPEG4/ISO/AVC
Duration                                 : 1h 23mn
Bit rate                                 : 4 531 Kbps
Width                                    : 1 920 pixels
Height                                   : 1 028 pixels
Display aspect ratio                     : 1.868
Frame rate                               : 23.976 fps
Color space                              : YUV
Chroma subsampling                       : 4:2:0
Bit depth                                : 8 bits
Scan type                                : Progressive
Bits/(Pixel*Frame)                       : 0.096
Stream size                              : 2.64 GiB (87%)
Title                                    : Release Group CINEMANIA
Language                                 : English
Default                                  : Yes
Forced                                   : No
Color primaries                          : BT.709-5, BT.1361, IEC 61966-2-4, SMPTE RP177
Transfer characteristics                 : BT.709-5, BT.1361
Matrix coefficients                      : BT.709-5, BT.1361, IEC 61966-2-4 709, SMPTE RP177

Audio #1
ID                                       : 2
Format                                   : AC-3
Format/Info                              : Audio Coding 3
Mode extension                           : CM (complete main)
Codec ID                                 : A_AC3
Duration                                 : 1h 23mn
Bit rate mode                            : Constant
Bit rate                                 : 192 Kbps
Channel(s)                               : 2 channels
Channel positions                        : Front: L R
Sampling rate                            : 48.0 KHz
Bit depth                                : 16 bits
Compression mode                         : Lossy
Stream size                              : 115 MiB (4%)
Title                                    : Павел Морозов
Language                                 : Russian
Default                                  : Yes
Forced                                   : Yes

Audio #2
ID                                       : 3
Format                                   : AC-3
Format/Info                              : Audio Coding 3
Mode extension                           : CM (complete main)
Codec ID                                 : A_AC3
Duration                                 : 1h 23mn
Bit rate mode                            : Constant
Bit rate                                 : 384 Kbps
Channel(s)                               : 6 channels
Channel positions                        : Front: L C R, Side: L R, LFE
Sampling rate                            : 48.0 KHz
Bit depth                                : 16 bits
Compression mode                         : Lossy
Stream size                              : 230 MiB (7%)
Language                                 : English
Default                                  : No
Forced                                   : No

Text #1
ID                                       : 4
Format                                   : UTF-8
Codec ID                                 : S_TEXT/UTF8
Codec ID/Info                            : UTF-8 Plain Text
Language                                 : Russian
Default                                  : Yes
Forced                                   : Yes

Text #2
ID                                       : 5
Format                                   : UTF-8
Codec ID                                 : S_TEXT/UTF8
Codec ID/Info                            : UTF-8 Plain Text
Title                                    : tolmakoff
Language                                 : Russian
Default                                  : No
Forced                                   : No

Menu
00:00:00.000                             : en:1
00:11:38.000                             : en:2
00:21:58.000                             : en:3
00:31:16.000                             : en:4
00:39:48.000                             : en:5
00:49:56.000                             : en:6
00:59:56.000                             : en:7
01:10:06.000                             : en:8
01:19:48.000                             : en:9

Скриншоты:


© Оформление by Ворон
pb.wtf



Скачать Внутренние демоны через торрент http://pic.kartinco.top/images/6/ordi9.jpg Скачать фильм Внутренние демоны через торрент бесплантно в хорошем качестве Год выпуска:2014 Страна: США Жанр:ужасы Продолжительность01:23:33 Перевод: (одноголосый) Субтитры: русские, русские ... 10 10 3
Торрент: Зарегистрирован [2015-02-01 20:26] · скачан: 77 раз
Статус: T временная
Размер: 3.04 GB
Как cкачать? Как скачать Внутренние демоны через торрент | qTorrent

% Раздел Тема Автор DL S | L
Порно фильмы HD [ 6.17 GB ] Внутренние Демоны / Inner Demons [2016 Feature Big Tits Lesbian Oral All Sex Threesome WEB-DL 1080p Оригинальный] nn99nn Скачать
1 | 0
T Фильмы (WEB-DL 720p, 1080p) [ 2.67 GB ] Внутренние демоны / Inner Demons [2014 WEB-DL Любительский [PashaUp] Anonymous Скачать
1 | 0
T Фильмы 2014 (Звук TS, Cam, VO, DVO) [ 1.37 GB ] Внутренние демоны / Inner Demons [2014 WEB-DLRip Любительский [Pashaup] Ворон Скачать
1 | 0

28-11-2019 20:33  

Отключить всю рекламу на сайте

    Дорогой пользователь! Огромная просьба, поблагодарите релизера, оцените раздачу и оставьте свои комментарий, если Вы скачали Внутренние демоны через торрент бесплатно! Внесите свою лепту в развитие PiratBit!
    Комментировать посты могут только пользователи прошедшие не сложную регистрацию
    Показать сообщения:    

    Внутренние демоны через торрент
    Скачать бесплатно Внутренние демоны
    Внутренние демоны скачать торрент
    Внутренние демоны смотреть онлайн
    Cкачать фильм Внутренние демоны бесплатно
    Внутренние демоны скачать торрент в хорошем качестве
    Внутренние демоны смотреть онлайн бесплатно в хорошем качестве


    Вы не можете начинать темы
    Вы не можете отвечать на сообщения
    Вы не можете редактировать свои сообщения
    Вы не можете удалять свои сообщения
    Вы не можете голосовать в опросах
    Вы не можете прикреплять файлы к сообщениям
    Вы можете скачивать файлы