Ссылка на приватное зеркало нашего сайта всего за 1$. Внимание количество ограничено!!!

2 сезон

iTunes

1 сезон

1

iTunes

iTunes

iTunes

1 сезон

RePack

30

ИГРА 18+

pack

ВАЖНО

!!Акция!!

Alien_RageХит недели

RePack

MK11
pack

Забери бонус

RePack

jed

!!Акция!!

Alien_Rage

RePack

fifa19

RePack

Assassins Creed: Odyssey

RePack

NEED FOR SPEED™ PAYBACK

4 сезон

9 сезон

Бесстыжие 9 сезон

Все сериалы

все сериалы на PB.wtf

RePack

FAR CRY 5
  

Горькие слёзы Петры Фон Кант / Die Bitteren Tränen der Petra von Kant (Райнер Вернер Фассбиндер) [1972, драма, BDRip 1080p] MVO pb.wtf

Горькие слёзы Петры Фон Кант через торрент pb.wtf

Размер: 13.02 GB | Добавлен: 5 лет 8 мес. назад | Торрент скачан:1 раз
Скачать  

02-02-2015 06:46 Горькие слёзы Петры Фон Кант Скачать торрент  

Горькие слёзы Петры Фон Кант / Die Bitteren Tränen der Petra von Kant

Год выпуска: 1972
Страна: Германия (ФРГ)
Жанр: драма
Продолжительность: 02:04:45
Перевод: профессиональный многоголосый
Субтитры: русские, английские

Режиссёр: Райнер Вернер Фассбиндер

В ролях: Маргит Карстенсен, Ханна Шигулла, Катрин Шааке, Ева Маттес, Гизела Факелдей, Ирм Херманн

Описание: Известная дизайнер одежды Петра Фон Кант живёт в мире славы, денег и успеха. Она добилась всего, чего хотела. Ей не нужны никакие мужчины и их «подачки», Петра абсолютно самодостаточна и вполне довольна своей жизнью. Но всё меняется, когда однажды в её роскошный дом приходит юная модель Карин. Внезапно искушённая жизнью Петра проникается глубокой симпатией к девушке и понимает, что ей нужна взаимность. Она начинает добиваться расположения своей пассии, жестоко ревнуя её к внешнему миру за пределами своего дома. Но у Карин совсем другие планы: она очень заинтересована в помощи и покровительстве знаменитой богатой Петры и всё её поведение пронизано фальшью...



Качество: BDRip 1080p Сравнение с исходником
Формат: MKV
Видео кодек: H.264
Видео: 14.2 Mбит/с, 1480х1080, 23.976 кадра/с, 0.343 bpp
Аудио 1: русский, AC3, 224 kbps, 2 ch, 48 kHz [профессиональный многоголосый, SomeWax]
Аудио 2: немецкий, AC3, 192 kbps, 1 ch, 48 kHz [оригинал]

Имеются неименованные главы/чаптеры.
2 Федеральных премии ФРГ I степени — за женские роли (поровну — Маргит Карстенсен и Ева Маттес) и операторскую работу.

Берлинский кинофестиваль, 1972 год
Номинации (1):
Золотой Медведь
Общее
Уникальный идентификатор : 247483893225918192041889625433740553893 (0xBA2FAA009AE71B3CA312E4E19E462EA5)
Полное имя : D:VideoGorkie slezy.1972.BDRip.1080p.mkv
Формат : Matroska
Версия формата : Version 4 / Version 2
Размер файла : 13,0 Гбайт
Продолжительность : 2 ч. 4 м.
Общий поток : 14,9 Мбит/сек
Дата кодирования : UTC 2015-02-02 03:56:30
Программа кодирования : mkvmerge v7.5.0 ('Glass Culture') 64bit built on Jan 4 2015 16:48:44
Библиотека кодирования : libebml v1.3.1 + libmatroska v1.4.2
_STATISTICS_WRITING_APP : mkvmerge v7.5.0 ('Glass Culture') 64bit built on Jan 4 2015 16:48:44
_STATISTICS_WRITING_DATE_UTC : 2015-02-02 03:56:30
_STATISTICS_TAGS : BPS DURATION NUMBER_OF_FRAMES NUMBER_OF_BYTES
DURATION : 02:04:06.522000000
NUMBER_OF_FRAMES : 1439
NUMBER_OF_BYTES : 37850

Видео
Идентификатор : 1
Формат : AVC
Формат/Информация : Advanced Video Codec
Профиль формата : High@L4.1
Параметр CABAC формата : Да
Параметр ReFrames формата : 4 кадра
Идентификатор кодека : V_MPEG4/ISO/AVC
Продолжительность : 2 ч. 4 м.
Битрейт : 14,2 Мбит/сек
Ширина : 1480 пикселей
Высота : 1080 пикселей
Соотношение сторон : 1,370
Режим частоты кадров : Постоянный
Частота кадров : 23,976 кадра/сек
Цветовое пространство : YUV
Субдискретизация насыщенности : 4:2:0
Битовая глубина : 8 бит
Тип развёртки : Прогрессивная
Бит/(Пиксели*Кадры) : 0.371
Размер потока : 12,4 Гбайт (95%)
Заголовок : BDRip -- STarankov
Библиотека кодирования : x264 core 142 r2431 ac76440
Настройки программы : cabac=1 / ref=4 / deblock=1:-1:-1 / analyse=0x3:0x113 / me=umh / subme=10 / psy=1 / psy_rd=1.00:0.15 / mixed_ref=1 / me_range=32 / chroma_me=1 / trellis=2 / 8x8dct=1 / cqm=0 / deadzone=21,11 / fast_pskip=1 / chroma_qp_offset=-3 / threads=6 / lookahead_threads=1 / sliced_threads=0 / nr=0 / decimate=1 / interlaced=0 / bluray_compat=0 / constrained_intra=0 / bframes=8 / b_pyramid=2 / b_adapt=2 / b_bias=0 / direct=3 / weightb=1 / open_gop=0 / weightp=2 / keyint=230 / keyint_min=23 / scenecut=40 / intra_refresh=0 / rc_lookahead=40 / rc=crf / mbtree=0 / crf=20.5 / qcomp=0.60 / qpmin=0 / qpmax=69 / qpstep=4 / vbv_maxrate=40000 / vbv_bufsize=50000 / crf_max=0.0 / nal_hrd=none / filler=0 / ip_ratio=1.40 / pb_ratio=1.30 / aq=1:1.00
Язык : German
Default : Да
Forced : Нет
DURATION : 02:04:45.729000000
NUMBER_OF_FRAMES : 179478
NUMBER_OF_BYTES : 13587024359
_STATISTICS_WRITING_APP : mkvmerge v7.5.0 ('Glass Culture') 64bit built on Jan 4 2015 16:48:44
_STATISTICS_WRITING_DATE_UTC : 2015-02-02 03:56:30
_STATISTICS_TAGS : BPS DURATION NUMBER_OF_FRAMES NUMBER_OF_BYTES

Аудио #1
Идентификатор : 2
Формат : AC-3
Формат/Информация : Audio Coding 3
Расширение режима : CM (complete main)
Параметр Endianness формата : Big
Идентификатор кодека : A_AC3
Продолжительность : 2 ч. 4 м.
Вид битрейта : Постоянный
Битрейт : 224 Кбит/сек
Каналы : 2 канала
Расположение каналов : Front: L R
Частота : 48,0 КГц
Битовая глубина : 16 бит
Метод сжатия : С потерями
Размер потока : 200 Мбайт (1%)
Заголовок : MVO (SomeWax)
Язык : Russian
Default : Да
Forced : Нет

Аудио #2
Идентификатор : 3
Формат : AC-3
Формат/Информация : Audio Coding 3
Расширение режима : CM (complete main)
Параметр Endianness формата : Big
Идентификатор кодека : A_AC3
Продолжительность : 2 ч. 4 м.
Вид битрейта : Постоянный
Битрейт : 192 Кбит/сек
Каналы : 1 канал
Расположение каналов : Front: C
Частота : 48,0 КГц
Битовая глубина : 16 бит
Метод сжатия : С потерями
Размер потока : 171 Мбайт (1%)
Заголовок : Original
Язык : German
Default : Нет
Forced : Нет

Текст #1
Идентификатор : 4
Формат : UTF-8
Идентификатор кодека : S_TEXT/UTF8
Идентификатор кодека/Информация : UTF-8 Plain Text
Заголовок : русские
Язык : Russian
Default : Нет
Forced : Нет

Текст #2
Идентификатор : 5
Формат : UTF-8
Идентификатор кодека : S_TEXT/UTF8
Идентификатор кодека/Информация : UTF-8 Plain Text
Заголовок : английский
Default : Нет
Forced : Нет

Меню
00:00:00.000 : en:00:00:00.000
00:38:56.918 : en:00:38:56.918
01:05:57.954 : en:01:05:57.954
01:34:51.728 : en:01:34:51.728
01:55:52.362 : en:01:55:52.362
pb.wtf



Скачать Горькие слёзы Петры Фон Кант через торрент http://i68.fastpic.ru/big/2015/0201/0a/b472be2f4bab5794b9b4a48a75c64e0a.jpg Скачать фильм Горькие слёзы Петры Фон Кант через торрент бесплантно в хорошем качестве Описание: Известная дизайнер одежды Петра Фон Кант живёт в мире славы, денег и успеха. Она добилась всего, чего хотела. Ей не нужны никакие ... 10 10 1
Торрент: Зарегистрирован [2015-02-02 06:46] · скачан: 1 раз
Статус: √ проверено
Размер: 13.02 GB
Как cкачать? Как скачать Горькие слёзы Петры Фон Кант через торрент | qTorrent

% Раздел Тема Автор DL S | L
Фильмы [HD 720p, 1080p] (Хороший звук DUB, MVO) [ 5.57 GB ] Горькие слёзы Петры Фон Кант / Die Bitteren Tränen der Petra von Kant [1972 BDRip 720p] MVO msltel Скачать
1 | 0

28-11-2019 20:33  

Отключить всю рекламу на сайте

    Дорогой пользователь! Огромная просьба, поблагодарите релизера, оцените раздачу и оставьте свои комментарий, если Вы скачали Горькие слёзы Петры Фон Кант через торрент бесплатно! Внесите свою лепту в развитие PiratBit!
    Комментировать посты могут только пользователи прошедшие не сложную регистрацию
    Показать сообщения:    

    Горькие слёзы Петры Фон Кант через торрент
    Скачать бесплатно Горькие слёзы Петры Фон Кант
    Горькие слёзы Петры Фон Кант скачать торрент
    Горькие слёзы Петры Фон Кант смотреть онлайн
    Cкачать фильм Горькие слёзы Петры Фон Кант бесплатно
    Горькие слёзы Петры Фон Кант скачать торрент в хорошем качестве
    Горькие слёзы Петры Фон Кант смотреть онлайн бесплатно в хорошем качестве


    Вы не можете начинать темы
    Вы не можете отвечать на сообщения
    Вы не можете редактировать свои сообщения
    Вы не можете удалять свои сообщения
    Вы не можете голосовать в опросах
    Вы не можете прикреплять файлы к сообщениям
    Вы можете скачивать файлы