2 сезон

iTunes

MVO

1

2 сезон

iTunes

iTunes

1 сезон

RePack

30

Новинка

ВАЖНО

ИГРА 18+

pack

RePack

MK11
pack

Легкие деньги

RePack

jed

RePack

fifa19

RePack

RDR2

RePack

NEED FOR SPEED™ PAYBACK

4 сезон

9 сезон

Бесстыжие 9 сезон

Все сериалы

все сериалы на PB.wtf

RePack

FAR CRY 5

Anonymous, доброй ночи, мы не успеваем собрать деньги на оплату серверов за декабрь и январь, помогите нам пожалуйста в это трудное время. В качестве благодарности мы отключим Вам всю рекламу на сайте (укажите свой ник в строку Ваше имя)!

×
  
Magnet ссылка

Голые файлы / Naked Files 4 [2015 г., Adult music clips, WEB-DLRip 720p, Оригинал] pb.wtf

Голые файлы через торрент pb.wtf

Размер: 1.66 GB | Добавлен: 5 лет 11 мес. назад | Торрент скачан:453 раза
Скачать  

02-02-2015 10:48 Голые файлы Скачать торрент  

Голые файлы / Naked Files 4
Год выпуска: 2015
Страна: All World
Жанр: Adult music clips
Продолжительность: 01:32:09
Перевод: Оригинал

Описание:

Откровенные кадры, танцы, стриптиз и так далее.... (всё под музыку...) 4 часть.
01. Alice in Wonderland [02:00]
02. Skins (Money) [03:15]
03. Cloud Fantasy [03:54]
04. Tainted Love - Ночь плохих студентов [03:13]
05. Dream [02:05]
06. Suur Papa - Patiplika [04:07]
07. Earth Gang - Opium [03:09]
08. Alaska Diamond - Titties [03:53]
09. Lolo - Heard It From a Friend [03:53]
10. Maidens in Paradise - Bikini Shoot [03:23]
11. Steed Lord - Curtain Call [03:57]
12. Akira Entertainment - Sexomnia [04:28]
13. Kruger - Zov [05:45]
14. Beat It [03:35]
15. Tar Crystalline - I Defy [03:40]
16. Version [03:47]
17. Erotic Electrical Tape Dance [04:57]
18. Student Driver (Hula Wobbler Remix) - A Go Go [02:16]
19. Crisveth Ortega - Burn [04:35]
20. Zones Nudist Music [04:18]
21. Tar Crystalline - So, This Is My Reward [03:26]
22. Body In Motion - Make Love Not War [02:37]
23. The Good The Bad - '030' [03:05]
24. Mondo Marcio - Un binario Morto [04:06]
25. The Sushihat Dolls [04:35]
Качество: WEB-DLRip 720p
Формат: MP4
Видео кодек: AVC
Аудио кодек: AAC
Видео: AVC, 1280x720 (16:9), 29.970 fps, 2 500 Kbps (0.091 bit/pixel)
Аудио#1: AAC LC, 48.0 KHz, 2 ch, 160 Kbps, VBR
скриншот   скриншот   скриншот   скриншот   скриншот   скриншот  

скриншот   скриншот   скриншот   скриншот   скриншот   скриншот  

Общее
Полное имя : D:\Архив\Клипы\Naked Files 4 (2015)\02. Skins (Money).mp4
Формат : MPEG-4
Профиль формата : Base Media / Version 2
Идентификатор кодека : mp42
Размер файла : 62,0 Мбайт
Продолжительность : 3 м. 15 с.
Режим общего битрейта : Переменный
Общий поток : 2662 Кбит/сек
Дата кодирования : UTC 2015-01-28 02:23:06
Дата пометки : UTC 2015-01-28 02:23:06

Видео
Идентификатор : 1
Формат : AVC
Формат/Информация : Advanced Video Codec
Профиль формата : High@L3.1
Параметр CABAC формата : Да
Параметр ReFrames формата : 4 кадра
Идентификатор кодека : avc1
Идентификатор кодека/Информация : Advanced Video Coding
Продолжительность : 3 м. 15 с.
Битрейт : 2500 Кбит/сек
Ширина : 1280 пикселей
Высота : 720 пикселей
Соотношение сторон : 16:9
Режим частоты кадров : Постоянный
Частота кадров : 29,970 кадров/сек
Цветовое пространство : YUV
Субдискретизация насыщенности : 4:2:0
Битовая глубина : 8 бит
Тип развёртки : Прогрессивная
Бит/(Пиксели*Кадры) : 0.091
Размер потока : 58,2 Мбайт (94%)
Библиотека кодирования : x264 core 142 r11 24e4fed
Настройки программы : cabac=1 / ref=3 / deblock=1:0:0 / analyse=0x3:0x113 / me=hex / subme=7 / psy=1 / psy_rd=1.00:0.00 / mixed_ref=1 / me_range=16 / chroma_me=1 / trellis=1 / 8x8dct=1 / cqm=0 / deadzone=21,11 / fast_pskip=1 / chroma_qp_offset=-2 / threads=48 / lookahead_threads=5 / sliced_threads=0 / nr=0 / decimate=1 / interlaced=0 / bluray_compat=0 / stitchable=1 / constrained_intra=0 / bframes=3 / b_pyramid=2 / b_adapt=1 / b_bias=0 / direct=1 / weightb=1 / open_gop=0 / weightp=2 / keyint=infinite / keyint_min=29 / scenecut=40 / intra_refresh=0 / rc_lookahead=40 / rc=2pass / mbtree=1 / bitrate=2500 / ratetol=1.0 / qcomp=0.60 / qpmin=5 / qpmax=69 / qpstep=4 / cplxblur=20.0 / qblur=0.5 / vbv_maxrate=2750 / vbv_bufsize=7500 / nal_hrd=none / filler=0 / ip_ratio=1.40 / aq=1:1.00
Дата кодирования : UTC 2015-01-28 02:23:06
Дата пометки : UTC 2015-01-28 02:23:06
Основные цвета : BT.709
Характеристики трансфера : BT.709
Коэффициенты матрицы : BT.709

Аудио
Идентификатор : 2
Формат : AAC
Формат/Информация : Advanced Audio Codec
Профиль формата : LC
Идентификатор кодека : 40
Продолжительность : 3 м. 15 с.
Вид битрейта : Переменный
Битрейт : 160 Кбит/сек
Каналы : 2 канала
Расположение каналов : Front: L R
Частота : 48,0 КГц
Метод сжатия : С потерями
Размер потока : 3,73 Мбайт (6%)
Дата кодирования : UTC 2015-01-28 02:23:06
Дата пометки : UTC 2015-01-28 02:23:06

pb.wtf



Скачать Голые файлы через торрент http://pic.kartinco.top/images/8/8dda8.jpg Скачать фильм Голые файлы через торрент бесплантно в хорошем качестве Описание: Откровенные кадры, танцы, стриптиз и так далее.... (всё под музыку...) 4 часть. Alice in Wonderland [02:00] Skins (Money) ... 8.3 10 21
Info! Серебряная раздача, засчитывается только 50% скачанного.
Торрент: Зарегистрирован [2015-02-02 10:48] · скачан: 453 раз
Статус: √ проверено
Размер: 1.66 GB
Как cкачать? Как скачать Голые файлы через торрент | UTorrent

28-11-2019 20:33  

Отключить всю рекламу на сайте

    Дорогой пользователь! Огромная просьба, поблагодарите релизера, оцените раздачу и оставьте свои комментарий, если Вы скачали Голые файлы через торрент бесплатно! Внесите свою лепту в развитие PiratBit!
    Комментировать посты могут только пользователи прошедшие не сложную регистрацию
    Показать сообщения:    

    Голые файлы через торрент
    Скачать бесплатно Голые файлы
    Голые файлы скачать торрент
    Голые файлы смотреть онлайн
    Cкачать фильм Голые файлы бесплатно
    Голые файлы скачать торрент в хорошем качестве
    Голые файлы смотреть онлайн бесплатно в хорошем качестве


    Вы не можете начинать темы
    Вы не можете отвечать на сообщения
    Вы не можете редактировать свои сообщения
    Вы не можете удалять свои сообщения
    Вы не можете голосовать в опросах
    Вы не можете прикреплять файлы к сообщениям
    Вы можете скачивать файлы