Ссылка на приватное зеркало нашего сайта всего за 1$. Внимание количество ограничено!!!

2 сезон

iTunes

1 сезон

1

iTunes

iTunes

iTunes

1 сезон

RePack

30

ИГРА 18+

pack

ВАЖНО

!!Акция!!

Alien_RageХит недели

RePack

MK11
pack

Забери бонус

RePack

jed

!!Акция!!

Alien_Rage

RePack

fifa19

RePack

Assassins Creed: Odyssey

RePack

NEED FOR SPEED™ PAYBACK

4 сезон

9 сезон

Бесстыжие 9 сезон

Все сериалы

все сериалы на PB.wtf

RePack

FAR CRY 5
  

Внутренние демоны / Inner Demons (Сет Гроссман ) [2014, ужасы, WEB-DLRip, Любительский (одноголосый) [Pashaup] pb.wtf

Внутренние демоны через торрент pb.wtf

Размер: 1.37 GB | Добавлен: 5 лет 8 мес. назад | Торрент скачан:132 раза
Скачать  

02-02-2015 16:09 Внутренние демоны Скачать торрент  


Внутренние демоны / Inner Demons
«Exorcise caution»

Информация:
Год выпуска:2014
Страна: США
Жанр:ужасы
Продолжительность01:23:32
Перевод:Любительский (одноголосый) [Pashaup]
Режиссер:Сет Гроссман

В ролях:


Лара Восберг (Carson Morris), Морган МакКлеллан (Jason Hurwitz), Кейт Уитни (Suzanne Tully), Брайан Флаэрти (Tim), Коллин МакГрэнн (Beth Morris), Кристофер Паркер (Steve Morris), Эшли Саттон (McKee Littlefield), Сьюзэн Атех (Nurse Shanti), Ричард Уилкинсон (Dr. Dean Pretiss), Сьюэлл Уитни (Reverend Foley), John Cragen (Dr. Kordis), Адриан Гаета (Eric)

Описание:
История о шестнадцатилетней девушке, бывшей отличнице, которая борется с наркозависимостью, но на самом деле страдает от чего-то куда более разрушительного...


Тех.Данные:
Качество: WEB-DLRip
Формат:AVI
Видео кодек: XviD
Аудио кодек:AC3
Видео: XviD, 720x384 (1.875), 1945 kbps, 23,976 fps, 0,280 bpp
Аудио №1: AC3 / 2.0 / 48 kHz / 192 kbps / Russian
Аудио №2: AC3 / 2.0 / 48 kHz / 192 kbps / English

Код:

General
Complete name                            : D:\Торенты\Inner.Demons.2014.L1.HDRip.1400MB.avi
Format                                   : AVI
Format/Info                              : Audio Video Interleave
File size                                : 1.37 GiB
Duration                                 : 1h 23mn
Overall bit rate                         : 2 343 Kbps
Writing application                      : VirtualDubMod 1.5.10.2 (build 2540/release)
Writing library                          : VirtualDubMod build 2540/release

Video
ID                                       : 0
Format                                   : MPEG-4 Visual
Format profile                           : Advanced Simple@L5
Format settings, BVOP                    : 2
Format settings, QPel                    : No
Format settings, GMC                     : No warppoints
Format settings, Matrix                  : Default (MPEG)
Codec ID                                 : XVID
Codec ID/Hint                            : XviD
Duration                                 : 1h 23mn
Bit rate                                 : 1945 Kbps
Width                                    : 720 pixels
Height                                   : 384 pixels
Display aspect ratio                     : 1.875
Frame rate                               : 23.976 fps
Color space                              : YUV
Chroma subsampling                       : 4:2:0
Bit depth                                : 8 bits
Scan type                                : Progressive
Compression mode                         : Lossy
Bits/(Pixel*Frame)                       : 0.280
Stream size                              : 1.08 GiB (79%)
Writing library                          : XviD 1.2.1 (UTC 2008-12-04)

Audio #1
ID                                       : 1
Format                                   : AC-3
Format/Info                              : Audio Coding 3
Mode extension                           : CM (complete main)
Codec ID                                 : 2000
Duration                                 : 1h 23mn
Bit rate mode                            : Constant
Bit rate                                 : 192 Kbps
Channel(s)                               : 2 channels
Channel positions                        : Front: L R
Sampling rate                            : 48.0 KHz
Bit depth                                : 16 bits
Compression mode                         : Lossy
Stream size                              : 115 MiB (8%)
Alignment                                : Split accross interleaves

Audio #2
ID                                       : 2
Format                                   : AC-3
Format/Info                              : Audio Coding 3
Mode extension                           : CM (complete main)
Codec ID                                 : 2000
Duration                                 : 1h 23mn
Bit rate mode                            : Constant
Bit rate                                 : 192 Kbps
Channel(s)                               : 2 channels
Channel positions                        : Front: L R
Sampling rate                            : 48.0 KHz
Bit depth                                : 16 bits
Compression mode                         : Lossy
Stream size                              : 115 MiB (8%)
Alignment                                : Split accross interleaves

Скриншоты:


© Оформление by Ворон
pb.wtf



Скачать Внутренние демоны через торрент http://pic.kartinco.top/images/6/ordi9.jpg Скачать фильм Внутренние демоны через торрент бесплантно в хорошем качестве Год выпуска:2014 Страна: США Жанр:ужасы Продолжительность01:23:32 Перевод: (одноголосый) [Pashaup] Режиссер:Сет Гроссман В ... 9.3 10 6
Торрент: Зарегистрирован [2015-02-02 16:09] · скачан: 132 раз
Статус: T временная
Размер: 1.37 GB
Как cкачать? Как скачать Внутренние демоны через торрент | qTorrent

% Раздел Тема Автор DL S | L
Порно фильмы HD [ 6.17 GB ] Внутренние Демоны / Inner Demons [2016 Feature Big Tits Lesbian Oral All Sex Threesome WEB-DL 1080p Оригинальный] nn99nn Скачать
1 | 0
T Фильмы (WEB-DL 720p, 1080p) [ 2.67 GB ] Внутренние демоны / Inner Demons [2014 WEB-DL Любительский [PashaUp] Anonymous Скачать
1 | 0
T Фильмы (WEB-DL 720p, 1080p) [ 3.04 GB ] Внутренние демоны / Inner Demons [2014 WEB-DL 1080p Любительский [PashaUp] Ворон Скачать
1 | 0

28-11-2019 20:33  

Отключить всю рекламу на сайте

    Дорогой пользователь! Огромная просьба, поблагодарите релизера, оцените раздачу и оставьте свои комментарий, если Вы скачали Внутренние демоны через торрент бесплатно! Внесите свою лепту в развитие PiratBit!
    Комментировать посты могут только пользователи прошедшие не сложную регистрацию
    Показать сообщения:    

    Внутренние демоны через торрент
    Скачать бесплатно Внутренние демоны
    Внутренние демоны скачать торрент
    Внутренние демоны смотреть онлайн
    Cкачать фильм Внутренние демоны бесплатно
    Внутренние демоны скачать торрент в хорошем качестве
    Внутренние демоны смотреть онлайн бесплатно в хорошем качестве


    Вы не можете начинать темы
    Вы не можете отвечать на сообщения
    Вы не можете редактировать свои сообщения
    Вы не можете удалять свои сообщения
    Вы не можете голосовать в опросах
    Вы не можете прикреплять файлы к сообщениям
    Вы можете скачивать файлы