Всегда рабочее зеркало без VPN и Proxy просто перед .vidak.icu напиши любое слово или цифру, Пример http://vgrp.vidak.icu

MVO

MVO

1 сезон

1

1 сезон

iTunes

1 сезон

13

1 сезон

Deluxe

pack

Рекомендуем

Repack

30

ВАЖНО

RePack

MK11

RePack

jed

RePack

fifa19

RePack

RDR2

RePack

NEED FOR SPEED™ PAYBACK

Кинопоиск HD

6 сезон

 Острые козырьки 6 сезон

Все сериалы

все сериалы на PB.wtf

RePack

FAR CRY 5
  
Magnet ссылка

Небесный меч / Heavenly Sword (Ган Хо Джанг ) [2014, мультфильм, фэнтези, боевик, HDRip, Любительский (одноголосый) [Pashaup] pb.wtf

Небесный меч через торрент pb.wtf

Размер: 1.36 GB | Добавлен: 7 лет 6 мес. назад | Торрент скачан:193 раза
Смотреть онлайн Небесный меч | Скачать    Ребята, помогите собрать деньги на оплату серверов!!!

02-02-2015 16:12 Небесный меч Скачать торрент  


Небесный меч / Heavenly Sword


Информация:
Год выпуска:2014
Страна: США
Жанр:мультфильм, фэнтези, боевик, приключения
Продолжительность01:26:31
Перевод:Любительский (одноголосый) [Pashaup]
Режиссер:Ган Хо Джанг

В ролях:


Эшли Болл (Kai), Бэрри Деннен (Flyinh Fox), Томас Джейн (Loki, озвучка), Альфред Молина (Bohan, озвучка), Нолан Норт (Roach / Kyo / Master Shen), Will Spagnola (озвучка), Анна Торв (Nariko, озвучка)

Описание:
Тодд Клейн - главный персонаж интересного мультфильма под названием "Небесный меч". Тодд проживает в одной, совсем маленькой деревне, которая находится на юге королевства. Тодд Клейн работает подмастерьем у кузнеца, выполнять задания кузнеца ему нравится. Парень помогает своему отцу по хозяйству, но всем своим сердцем он представляет, как уже сейчас находится на полях сражений, в приключения, путешествиях и интересной погоне за драконом.

  • Мировая премьера:4 сентября 2014

    Тех.Данные:
    Качество: HDRip
    Формат:AVI
    Видео кодек: XviD
    Аудио кодек:AC3
    Видео: XviD, 720x400 (16:9), 1797 kbps, 23,976 fps, 0,247 bpp
    Аудио: AC3 / 5.1 / 48 kHz / 448 kbps / 16 bit

    Код:

    General
    Complete name                            : D:\Торенты\Heavenly.Sword.2014.avi
    Format                                   : AVI
    Format/Info                              : Audio Video Interleave
    File size                                : 1.36 GiB
    Duration                                 : 1h 26mn
    Overall bit rate                         : 2 255 Kbps
    Writing application                      : VirtualDubMod 1.5.10.2 (build 2540/release)
    Writing library                          : VirtualDubMod build 2540/release

    Video
    ID                                       : 0
    Format                                   : MPEG-4 Visual
    Format profile                           : Advanced [email protected]
    Format settings, BVOP                    : 2
    Format settings, QPel                    : No
    Format settings, GMC                     : No warppoints
    Format settings, Matrix                  : Default (H.263)
    Muxing mode                              : Packed bitstream
    Codec ID                                 : XVID
    Codec ID/Hint                            : XviD
    Duration                                 : 1h 26mn
    Bit rate                                 : 1797  Kbps
    Width                                    : 720 pixels
    Height                                   : 400 pixels
    Display aspect ratio                     : 16:9
    Frame rate                               : 23.976 fps
    Color space                              : YUV
    Chroma subsampling                       : 4:2:0
    Bit depth                                : 8 bits
    Scan type                                : Progressive
    Compression mode                         : Lossy
    Bits/(Pixel*Frame)                       : 0.247
    Stream size                              : 1.03 GiB (76%)
    Writing library                          : XviD 64

    Audio
    ID                                       : 1
    Format                                   : AC-3
    Format/Info                              : Audio Coding 3
    Mode extension                           : CM (complete main)
    Codec ID                                 : 2000
    Duration                                 : 1h 26mn
    Bit rate mode                            : Constant
    Bit rate                                 : 448 Kbps
    Channel(s)                               : 6 channels
    Channel positions                        : Front: L C R, Side: L R, LFE
    Sampling rate                            : 48.0 KHz
    Bit depth                                : 16 bits
    Compression mode                         : Lossy
    Stream size                              : 277 MiB (20%)
    Alignment                                : Split accross interleaves

    Скриншоты:


    © Оформление by Ворон
    pb.wtf



  • Скачать Небесный меч через торрент https://pic1.kartinco.top/images/61/ordi9.jpg Скачать, смотреть онлайн Небесный меч бесплантно в хорошем качестве Год выпуска:2014✦ Страна: США✦ Жанр:мультфильм, фэнтези, боевик, приключения✦ Продолжительность01:26:31✦ Перевод: (одноголосый) ... 9.8 10 11
    Торрент: Зарегистрирован [2015-02-02 16:12] · скачан: 193 раз
    Статус: T временная
    Размер: 1.36 GB
    Как cкачать? Как скачать Небесный меч через торрент | UTorrent

    % Раздел Тема Автор DL S | L
    Зарубежные Мультфильмы (WEB-DL 720p, 1080p) [ 3.62 GB ] Небесный меч / Heavenly Sword [2014 WEB-DLRip 1080p Любительский одноголосый] PROCTOLOG Скачать
    1 | 0
    Зарубежные Мультфильмы (WEB-DL 720p, 1080p) [ 2.91 GB ] Небесный меч / Heavenly Sword [2014 мультфильм WEB-DLRip 720p Любительский одноголосый] Assasinca Скачать
    1 | 0
    T Иностранные мультфильмы [ 1.45 GB ] Небесный меч / Heavenly Sword [2014 мультфильм HDRip-AVC Любительский [Pashaup] Anonymous Скачать
    1 | 0
    T Фильмы без перевода [ 3.35 GB ] Небесный меч / Heavenly Sword [2014 мультфильм WEB-DLRip 1080p Оригинал [ENG]] PROCTOLOG Скачать
    1 | 0

    28-11-2019 20:33  

    Отключить вcю реклaмy на сайте

    02-02-2015 16:56 Небесный меч Скачать торрент  

    а в хорошем качестве с переводом будет?pb.wtf



      Дорогой пользователь! Огромная просьба, поблагодарите релизера, оцените раздачу и оставьте свои комментарий, если Вы скачали Небесный меч через торрент бесплатно!
      Комментировать посты могут только пользователи прошедшие не сложную регистрацию
      Показать сообщения:    

      Небесный меч через торрент
      Скачать бесплатно Небесный меч
      Небесный меч скачать торрент
      Небесный меч смотреть онлайн
      Cкачать фильм Небесный меч бесплатно
      Небесный меч скачать торрент в хорошем качестве
      Небесный меч смотреть онлайн бесплатно в хорошем качестве


      Вы не можете начинать темы
      Вы не можете отвечать на сообщения
      Вы не можете редактировать свои сообщения
      Вы не можете удалять свои сообщения
      Вы не можете голосовать в опросах
      Вы не можете прикреплять файлы к сообщениям
      Вы можете скачивать файлы