Ссылка на приватное зеркало всего за 1$. Внимание количество ограничено!!!

iTunes

iTunes

iTunes

1

iTunes

iTunes

iTunes

iTunes

iTunes

30
pack

$ от Little Big

ВАЖНО

!!Акция!!

Alien_RageХит недели

RePack

Resident Evil 21

ИГРА 18+

pack

RePack

jed

!!Акция!!

Alien_Rage

RePack

fifa19

RePack

Assassins Creed: Odyssey

RePack

NEED FOR SPEED™ PAYBACK

4 сезон

9 сезон

Бесстыжие 9 сезон

Все сериалы

все сериалы на PB.wtf

RePack

FAR CRY 5
  

Клиника страха / Fear Clinic (Роберт Холл ) [2014, ужасы, WEB-DL 720p, Любительский (двухголосый) [den904, DeadSno] pb.wtf

Клиника страха через торрент pb.wtf

Размер: 3.06 GB | Добавлен: 5 лет 5 мес. назад | Торрент скачан:104 раза
Скачать  

02-02-2015 21:14 Клиника страха Скачать торрент  


Клиника страха / Fear Clinic


Информация:
Год выпуска:2014
Страна: США
Жанр:ужасы
Продолжительность01:35:26
Перевод:Любительский (двухголосый) [den904, DeadSno]

Режиссер:Роберт Холл

В ролях:


Томас Деккер (Blake), Роберт Инглунд (Dr. Andover), Кевин Гейдж (Gage), Фиона Дуриф (Sara), Клеопатра Коулмэн (Megan), Кори Тейлор (Bauer), Брэндон Бимер (Dylan), Фелиша Террелл (Osborn), Анджелина Армани (Caylee), Бонни Морган (Paige), Ричард Файк (Diner customer), Райдер Гейдж (Kevin)

Описание:
После нападения террориста на кафе, психика оставшихся в живых посетителей пострадала настолько, что у них начали появляться и обостряться самые различные фобии. Стремясь избавиться от постоянного страха, превратившего их жизнь в непрекращающийся кошмар, они обращаются к доктору Эндевору, главе клиники, исследующей страх и занимающейся излечением людей от фобий. Однако новаторская экспериментальная метода доктора впускает в наш мир нечто ужасное и непобедимое.


Тех.Данные:
Качество: WEB-DL 720p
Формат:MKV
Видео кодек: AVC
Аудио кодек:AC3
Видео: AVC, 1280x534 (2.40:1), 3921 kbps, 23,976 fps, 0,239 bpp
Аудио №1: русский / AC3 / 2.0 / 48 kHz / 192 kbps / 16 bit ||
Аудио №2: английский / AC3 / 5.1 / 48 kHz / 384 kbps / 16 bit
Навигация по главам: есть

Код:

General
Unique ID                                : 207218671323783484744174731072125496742 (0x9BE4DD4A3A0FBBA9B5AB9E4D45636DA6)
Complete name                            : D:\Торенты\Fear Clinic.2014.L2.WEB-DL.720p.mkv
Format                                   : Matroska
Format version                           : Version 4 / Version 2
File size                                : 3.06 GiB
Duration                                 : 1h 35mn
Overall bit rate                         : 4 588 Kbps
Encoded date                             : UTC 2015-02-02 20:24:48
Writing application                      : mkvmerge v6.1.0 ('Old Devil') built on Mar  4 2013 09:10:42
Writing library                          : libebml v1.3.0 + libmatroska v1.4.0

Video
ID                                       : 1
Format                                   : AVC
Format/Info                              : Advanced Video Codec
Format profile                           : Main@L3.1
Format settings, CABAC                   : No
Format settings, ReFrames                : 2 frames
Codec ID                                 : V_MPEG4/ISO/AVC
Duration                                 : 1h 35mn
Bit rate                                 : 3 921 Kbps
Width                                    : 1 280 pixels
Height                                   : 534 pixels
Display aspect ratio                     : 2.40:1
Frame rate                               : 23.976 fps
Color space                              : YUV
Chroma subsampling                       : 4:2:0
Bit depth                                : 8 bits
Scan type                                : Progressive
Bits/(Pixel*Frame)                       : 0.239
Stream size                              : 2.61 GiB (85%)
Language                                 : English
Default                                  : Yes
Forced                                   : No
Color primaries                          : BT.709-5, BT.1361, IEC 61966-2-4, SMPTE RP177
Transfer characteristics                 : BT.709-5, BT.1361
Matrix coefficients                      : BT.709-5, BT.1361, IEC 61966-2-4 709, SMPTE RP177

Audio #1
ID                                       : 2
Format                                   : AC-3
Format/Info                              : Audio Coding 3
Mode extension                           : CM (complete main)
Codec ID                                 : A_AC3
Duration                                 : 1h 35mn
Bit rate mode                            : Constant
Bit rate                                 : 192 Kbps
Channel(s)                               : 2 channels
Channel positions                        : Front: L R
Sampling rate                            : 48.0 KHz
Bit depth                                : 16 bits
Compression mode                         : Lossy
Stream size                              : 131 MiB (4%)
Language                                 : Russian
Default                                  : Yes
Forced                                   : No

Audio #2
ID                                       : 3
Format                                   : AC-3
Format/Info                              : Audio Coding 3
Mode extension                           : CM (complete main)
Codec ID                                 : A_AC3
Duration                                 : 1h 35mn
Bit rate mode                            : Constant
Bit rate                                 : 384 Kbps
Channel(s)                               : 6 channels
Channel positions                        : Front: L C R, Side: L R, LFE
Sampling rate                            : 48.0 KHz
Bit depth                                : 16 bits
Compression mode                         : Lossy
Stream size                              : 262 MiB (8%)
Language                                 : English
Default                                  : No
Forced                                   : No

Text
ID                                       : 4
Format                                   : UTF-8
Codec ID                                 : S_TEXT/UTF8
Codec ID/Info                            : UTF-8 Plain Text
Default                                  : Yes
Forced                                   : No

Menu
00:00:00.000                             : en:Main Titles
00:03:48.000                             : en:Open Your Eyes
00:10:26.000                             : en:Fear Aftershocks
00:18:35.000                             : en:"I Saw The Shooter"
00:26:04.000                             : en:Fear Waste
00:33:59.000                             : en:Not Over
00:40:21.000                             : en:"I Don't Want To Remember Everything"
00:51:15.000                             : en:"I See Monsters"
00:59:52.000                             : en:Sucked In
01:10:06.000                             : en:Worse Than Death
01:21:37.000                             : en:"Fear Never Dies"
01:31:17.000                             : en:End Credits

Скриншоты:


© Оформление by Ворон
pb.wtf



Скачать Клиника страха через торрент http://pic.kartinco.top/images/6/ordi9.jpg Скачать фильм Клиника страха через торрент бесплантно в хорошем качестве Год выпуска:2014 Страна: США Жанр:ужасы Продолжительность01:35:26 Перевод: (двухголосый) [den904, DeadSno] Режиссер:Роберт ... 10 10 4
Торрент: Зарегистрирован [2015-02-02 21:14] · скачан: 104 раз
Статус: T временная
Размер: 3.06 GB
Как cкачать? Как скачать Клиника страха через торрент | qTorrent

% Раздел Тема Автор DL S | L
Фильмы (Blu-ray, BD-Remux, HDDVD) [ 15.7 GB ] Клиника страха / Fear Clinic [2014 BDRemux 1080p] DVO Ворон Скачать
1 | 0
T Фильмы 2014 (Звук TS, Cam, VO, DVO) [ 1.3 GB ] Клиника страха / Fear Clinic [2014 HDRip Любительский [den904 DeadSno] Ворон Скачать
1 | 0

28-11-2019 20:33  

Отключить всю рекламу на сайте

    Дорогой пользователь! Огромная просьба, поблагодарите релизера, оцените раздачу и оставьте свои комментарий, если Вы скачали Клиника страха через торрент бесплатно! Внесите свою лепту в развитие PiratBit!
    Комментировать посты могут только пользователи прошедшие не сложную регистрацию
    Показать сообщения:    

    Клиника страха через торрент
    Скачать бесплатно Клиника страха
    Клиника страха скачать торрент
    Клиника страха смотреть онлайн
    Cкачать фильм Клиника страха бесплатно
    Клиника страха скачать торрент в хорошем качестве
    Клиника страха смотреть онлайн бесплатно в хорошем качестве


    Вы не можете начинать темы
    Вы не можете отвечать на сообщения
    Вы не можете редактировать свои сообщения
    Вы не можете удалять свои сообщения
    Вы не можете голосовать в опросах
    Вы не можете прикреплять файлы к сообщениям
    Вы можете скачивать файлы