Ссылка на приватное зеркало нашего сайта всего за 1$. Внимание количество ограничено!!!

2 сезон

iTunes

1 сезон

1

iTunes

iTunes

iTunes

1 сезон

RePack

30

ИГРА 18+

pack

ВАЖНО

!!Акция!!

Alien_RageХит недели

RePack

MK11
pack

Забери бонус

RePack

jed

!!Акция!!

Alien_Rage

RePack

fifa19

RePack

Assassins Creed: Odyssey

RePack

NEED FOR SPEED™ PAYBACK

4 сезон

9 сезон

Бесстыжие 9 сезон

Все сериалы

все сериалы на PB.wtf

RePack

FAR CRY 5
  

Все мертвы / Todos están muertos (Беатрис Санчис ) [2014, драма, комедия, семейный, HDRip, Любительский (одноголосый)[Lord32x] pb.wtf

Все мертвы через торрент pb.wtf

Размер: 1.5 GB | Добавлен: 5 лет 8 мес. назад | Торрент скачан:35 раз
Скачать  

03-02-2015 15:55 Все мертвы Скачать торрент  


Все мертвы / Todos están muertos


Информация:
Год выпуска:2014
Страна: Германия, Мексика, Испания
Жанр:драма, комедия, семейный
Продолжительность01:29:30
Перевод:Любительский (одноголосый)[Lord32x]
Режиссер:Беатрис Санчис

В ролях:


Елена Анайя (Lupe), Анхелика Арагон (Paquita), Кристиан Берналь (Pancho), Науэль Перес Бискаярт (Diego), Патрик Криаду (Víctor), Макарена Гарсия (Nadia), Патрисия Рейес Спиндола (Doña Rosario), Луис М. Кордеро (Enfermero)

Описание:
Мадрид, 1996 год. Лупе, бывшая рок-звезда, не общается с миром и не выходит из дому после того, как 15 лет назад в автокатастрофе погиб её брат Диего. Панчо, сын Лупе, любит свою бабушку, Пакиту, которая заботится о нём. Но дни Пакиты сочтены, и ей приходится принимать неожиданное решение, чтобы вернуть Лупе к нормальной жизни.


Тех.Данные:
Качество: HDRip
Формат:AVI
Видео кодек: XviD
Аудио кодек:AC3
Видео: XviD, 720x384 (1.875), 2003 kbps, 23,976 fps, 0,288 bpp
Аудио: AC3 / 2.0 / 48 kHz / 384 kbps / 16 bit

Код:

General
Complete name                            : D:\Торенты\Todos.Estan.Muertos.2014.HDRip.1500MB.avi
Format                                   : AVI
Format/Info                              : Audio Video Interleave
File size                                : 1.50 GiB
Duration                                 : 1h 29mn
Overall bit rate                         : 2 396 Kbps
Writing application                      : VirtualDubMod 1.5.10.3 | www.virtualdub-fr.org || (build 2550/release)
Writing library                          : VirtualDubMod build 2550/release

Video
ID                                       : 0
Format                                   : MPEG-4 Visual
Format profile                           : Simple@L5
Format settings, BVOP                    : No
Format settings, QPel                    : No
Format settings, GMC                     : No warppoints
Format settings, Matrix                  : Default (H.263)
Codec ID                                 : XVID
Codec ID/Hint                            : XviD
Duration                                 : 1h 29mn
Bit rate                                 : 1 908 Kbps
Width                                    : 720 pixels
Height                                   : 384 pixels
Display aspect ratio                     : 1.875
Frame rate                               : 23.976 fps
Color space                              : YUV
Chroma subsampling                       : 4:2:0
Bit depth                                : 8 bits
Scan type                                : Progressive
Compression mode                         : Lossy
Bits/(Pixel*Frame)                       : 0.288
Stream size                              : 1.19 GiB (80%)
Writing library                          : XviD 64

Audio
ID                                       : 1
Format                                   : AC-3
Format/Info                              : Audio Coding 3
Mode extension                           : CM (complete main)
Codec ID                                 : 2000
Duration                                 : 1h 29mn
Bit rate mode                            : Constant
Bit rate                                 : 384 Kbps
Channel(s)                               : 2 channels
Channel positions                        : Front: L R
Sampling rate                            : 48.0 KHz
Bit depth                                : 16 bits
Compression mode                         : Lossy
Stream size                              : 246 MiB (16%)
Alignment                                : Split accross interleaves

Скриншоты:


© Оформление by Ворон
pb.wtf



Скачать Все мертвы через торрент http://pic.kartinco.top/images/6/ordi9.jpg Скачать фильм Все мертвы через торрент бесплантно в хорошем качестве Год выпуска:2014 Страна: Германия, Мексика, Испания Жанр:драма, комедия, семейный Продолжительность01:29:30 ... 10 10 2
Торрент: Зарегистрирован [2015-02-03 15:55] · скачан: 35 раз
Статус: T временная
Размер: 1.5 GB
Как cкачать? Как скачать Все мертвы через торрент | qTorrent

28-11-2019 20:33  

Отключить всю рекламу на сайте

    Дорогой пользователь! Огромная просьба, поблагодарите релизера, оцените раздачу и оставьте свои комментарий, если Вы скачали Все мертвы через торрент бесплатно! Внесите свою лепту в развитие PiratBit!
    Комментировать посты могут только пользователи прошедшие не сложную регистрацию
    Показать сообщения:    

    Все мертвы через торрент
    Скачать бесплатно Все мертвы
    Все мертвы скачать торрент
    Все мертвы смотреть онлайн
    Cкачать фильм Все мертвы бесплатно
    Все мертвы скачать торрент в хорошем качестве
    Все мертвы смотреть онлайн бесплатно в хорошем качестве


    Вы не можете начинать темы
    Вы не можете отвечать на сообщения
    Вы не можете редактировать свои сообщения
    Вы не можете удалять свои сообщения
    Вы не можете голосовать в опросах
    Вы не можете прикреплять файлы к сообщениям
    Вы можете скачивать файлы