Ссылка на приватное зеркало всего за 1$. Внимание количество ограничено!!!

iTunes

iTunes

iTunes

1

iTunes

iTunes

iTunes

iTunes

iTunes

30
pack

$ от Little Big

ВАЖНО

!!Акция!!

Alien_RageХит недели

RePack

Resident Evil 21

ИГРА 18+

pack

RePack

jed

!!Акция!!

Alien_Rage

RePack

fifa19

RePack

Assassins Creed: Odyssey

RePack

NEED FOR SPEED™ PAYBACK

4 сезон

9 сезон

Бесстыжие 9 сезон

Все сериалы

все сериалы на PB.wtf

RePack

FAR CRY 5
  

Ёлки лохматые (Максим Свешников) [2015 г., семейный, комедия, HDRip] Лицензия pb.wtf

Ёлки лохматые через торрент pb.wtf

Размер: 1.37 GB | Добавлен: 5 лет 3 мес. назад | Торрент скачан:6205 раз
Скачать  

04-02-2015 04:04 Ёлки лохматые Скачать торрент  

Ёлки лохматые

Год выпуска: 2015
Страна: Россия
Жанр: семейный, комедия
Продолжительность: 01:25:48
Перевод: Не требуется Лицензия

Режиссер: Максим Свешников
Продюссер: Тимур Бекмамбетов, Евгения Аронова, Мария Затуловская
Сценарий: Вадим Свешников, Максим Свешников
Премьера в мире: 29 января 2015



В ролях: Андрей Мерзликин, Ян Цапник, Лера Стреляева, Галина Коньшина, Фемме Фатале, Айса Энимал Арт, Пётр Фёдоров, Анна Чиповская, Виктор Васильев, Андрей Федорцов

Описание: Хозяйка Пирата и Йоко — самарская девочка Настя — улетает с бабушкой в Питер, оставляя питомцев в отеле для собак. Расценив это как предательство, животные сбегают домой, где можно наконец почувствовать себя человеком — есть сколько угодно, играть без устали и спать на хозяйской кровати. Но райский отдых влюбленных прерывают два незадачливых воришки, которых ждет нечеловеческий прием...

Качество: HDRip
Формат: AVI
Видео кодек: XviD
Аудио кодек: AC3
Видео: 1823 Кбит/сек, 720 х 304, 24,000 кадра/сек
Аудио: 448 Кбит/сек, 6 каналов, 48,0 КГц

Формат : AVI
Формат/Информация : Audio Video Interleave
Размер файла : 1,37 Гбайт
Продолжительность : 1 ч. 25 м.
Общий поток : 2280 Кбит/сек
Программа кодирования : VirtualDubMod 1.5.10.2 (build 2540/release)

Видео
Идентификатор : 0
Формат : MPEG-4 Visual
Профиль формата : Advanced Simple@L5
Параметр BVOP формата : 2
Параметр QPel формата : Нет
Параметр GMC формата : Без точки перехода
Параметр матрицы формата : Default (MPEG)
Идентификатор кодека : XVID
Идентификатор кодека/Подсказка : XviD
Продолжительность : 1 ч. 25 м.
Битрейт : 1823 Кбит/сек
Ширина : 720 пикселей
Высота : 304 пикселя
Соотношение сторон : 2,35:1
Частота кадров : 24,000 кадра/сек
Цветовое пространство : YUV
Субдискретизация насыщенности : 4:2:0
Битовая глубина : 8 бит
Тип развёртки : Прогрессивная
Метод сжатия : С потерями
Бит/(Пиксели*Кадры) : 0.347
Размер потока : 1,09 Гбайт (80%)
Библиотека кодирования : XviD 1.2.1 (UTC 2008-12-04)

Аудио
Идентификатор : 1
Формат : AC-3
Формат/Информация : Audio Coding 3
Расширение режима : CM (complete main)
Параметр Endianness формата : Big
Идентификатор кодека : 2000
Продолжительность : 1 ч. 25 м.
Вид битрейта : Постоянный
Битрейт : 448 Кбит/сек
Каналы : 6 каналов
Расположение каналов : Front: L C R, Side: L R, LFE
Частота : 48,0 КГц
Битовая глубина : 16 бит
Метод сжатия : С потерями
Размер потока : 275 Мбайт (20%)
Выравнивание : Разделение по промежуткам
Продолжительность промежутка : 42 мс. (1,00 видеокадр)
Время предзагрузки промежутка : 500 мс.

скриншот   скриншот   скриншот  pb.wtf



Скачать Ёлки лохматые через торрент http://pic.kartinco.top/images/8/g5pcr.jpg Скачать фильм Ёлки лохматые через торрент бесплантно в хорошем качестве Описание: Хозяйка Пирата и Йоко — самарская девочка Настя — улетает с бабушкой в Питер, оставляя питомцев в отеле для собак. Расценив это ... 9.5 10 142
Info! Золотая раздача, скачанное не засчитывается.
Торрент: Зарегистрирован [2015-02-04 04:04] · скачан: 6 205 раз
Статус: √ проверено
Размер: 1.37 GB
Как cкачать? Как скачать Ёлки лохматые через торрент | qTorrent

28-11-2019 20:33  

Отключить всю рекламу на сайте

04-02-2015 04:43 Ёлки лохматые Скачать торрент  

хороший добрый фильмец-эдакий один дома на собачий ладpb.wtf



04-02-2015 05:17 Ёлки лохматые Скачать торрент  

Спасибо pb.wtf



04-02-2015 05:40 Ёлки лохматые Скачать торрент  

кэп,
  pb.wtf



05-02-2015 09:51 Ёлки лохматые Скачать торрент  

посмотрим!pb.wtf



05-02-2015 21:05 Ёлки лохматые Скачать торрент  

zxz32 писал(а):

посмотрим!

Ну как фильмец?Стоит того чтоб посмотреть?pb.wtf



06-02-2015 09:08 Ёлки лохматые Скачать торрент  

Молодец!!!
pb.wtf



07-02-2015 14:21 Ёлки лохматые Скачать торрент  

нормальный фильм для домашнего просмотраpb.wtf



07-02-2015 17:19 Ёлки лохматые Скачать торрент  

Ostin_7 писал(а):

zxz32 писал(а):

посмотрим!

Ну как фильмец?Стоит того чтоб посмотреть?

Жене понравился! мне не очень честно говоряpb.wtf



09-02-2015 16:23 Ёлки лохматые Скачать торрент  

фильм для детей, им очень нравится. Взрослым хочется другого!pb.wtf



09-02-2015 18:24 Ёлки лохматые Скачать торрент  

Фильм детский :sarcastic_blum:pb.wtf



10-02-2015 01:49 Ёлки лохматые Скачать торрент  

херня опятьpb.wtf



12-02-2015 08:57 Ёлки лохматые Скачать торрент  

Ждем обзор от Badcomedian)))pb.wtf



    Дорогой пользователь! Огромная просьба, поблагодарите релизера, оцените раздачу и оставьте свои комментарий, если Вы скачали Ёлки лохматые через торрент бесплатно! Внесите свою лепту в развитие PiratBit!
    Комментировать посты могут только пользователи прошедшие не сложную регистрацию
    Показать сообщения:    

    Ёлки лохматые через торрент
    Скачать бесплатно Ёлки лохматые
    Ёлки лохматые скачать торрент
    Ёлки лохматые смотреть онлайн
    Cкачать фильм Ёлки лохматые бесплатно
    Ёлки лохматые скачать торрент в хорошем качестве
    Ёлки лохматые смотреть онлайн бесплатно в хорошем качестве


    Вы не можете начинать темы
    Вы не можете отвечать на сообщения
    Вы не можете редактировать свои сообщения
    Вы не можете удалять свои сообщения
    Вы не можете голосовать в опросах
    Вы не можете прикреплять файлы к сообщениям
    Вы можете скачивать файлы