1 сезон

1 сезон

iTunes

1

КиноПоиск HD

Кинопоиск HD

iTunes

13

1 сезон

RePack

30

Ultimate

ВАЖНО

ИГРА 18+

pack

RePack

MK11
pack

Легкие деньги

RePack

jed

RePack

fifa19

RePack

RDR2

RePack

NEED FOR SPEED™ PAYBACK

4 сезон

9 сезон

Бесстыжие 9 сезон

Все сериалы

все сериалы на PB.wtf

RePack

FAR CRY 5
  
Magnet ссылка

Оптом дешевле / Cheaper by the Dozen (Шон Леви / Shawn Levy) [2003, США, комедия, семейный, HDTVRip] Dub pb.wtf

Оптом дешевле через торрент pb.wtf

Размер: 1.35 GB | Добавлен: 6 лет 2 мес. назад | Торрент скачан:75 раз
Скачать  

04-02-2015 11:53 Оптом дешевле Скачать торрент  

Оптом дешевле / Cheaper by the Dozen
Страна: США
Год выпуска: 2003
Жанр: комедия, семейный
Продолжительность: 01:24:29
Перевод: Профессиональный (полное дублирование)
Оригинальная аудиодорожка: нет
Cубтитры: нет

Режиссер: Шон Леви / Shawn Levy

В ролях: Стив Мартин, Бонни Хант, Пайпер Перабо, Том Уэллинг, Хилари Дафф, Эштон Катчер, Ричард Дженкинс, Алан Рак, Пола Маршалл, Холмс Осборн, Форрест Лэндис, Блейк Вудрафф, Брент Кинсман, Шейн Кинсман, Лилиана Муми, Стивен Энтони Лоуренс, Джейкоб Смит, Элисон Стоунер, Морган Йорк, Ванесса Белл Кэллоуэй, Рекс Линн

Описание: Том и Кейт вместе еще со школы. Они всегда мечтали о большой семье и успешной карьере. Но после рождения первых детей мысли о карьере ушли на второй план и все семейство переехало в тихий и спокойной Иллинойс. Когда детей стало уже двенадцать, Тому предложили работу его мечты — тренировать футбольную команду.
Для этого всей семье опять приходится поменять место жительства. Кейт тоже повезло — ее мемуары наконец-то опубликуют. Она едет на презентацию книги в Нью-Йорк, оставляя бедного Тома следить за целой оравой детей. Сможет ли Том правильно распределить свои усилия, чтобы ни дети, ни работа не пострадали?


Качество: HDTVRip [HDTV 1080i]
Формат: AVI
Видео кодек: XviD
Аудио кодек: AC3
Видео: 704x400 (1.76:1), 25 fps, XviD build 73 ~2087 kbps avg, 0.30 bit/pixel
Аудио: 48 kHz, AC3 Dolby Digital, 2/0 (L,R) ch, ~192 kbps
Раздача от:

Код:

D:\Мои рипы\Optom.deshevle.2003.hdtvrip.dexter_lex.avi
  General
    Complete name : D:\Мои рипы\Optom.deshevle.2003.hdtvrip.dexter_lex.avi
    Format : AVI
    Format/Info : Audio Video Interleave
    File size : 1.35 GiB
    Duration : 1h 24mn
    Overall bit rate : 2 290 Kbps
    Writing application : VirtualDubMod 1.5.10.3 | www.virtualdub-fr.org || (build 2550/release)
    Writing library : VirtualDubMod build 2550/release
  Video #0
    ID : 0
    Format : MPEG-4 Visual
    Format profile : Advanced Simple@L5
    Format settings, BVOP : 1
    Format settings, QPel : No
    Format settings, GMC : No warppoints
    Format settings, Matrix : Custom
    Codec ID : XVID
    Codec ID/Hint : XviD
    Duration : 1h 24mn
    Bit rate : 2 088 Kbps
    Width : 704 pixels
    Height : 400 pixels
    Display aspect ratio : 16:9
    Frame rate : 25.000 fps
    Color space : YUV
    Chroma subsampling : 4:2:0
    Bit depth : 8 bits
    Scan type : Progressive
    Compression mode : Lossy
    Bits/(Pixel*Frame) : 0.297
    Stream size : 1.23 GiB (91%)
    Writing library : XviD 73
  Audio #1
    ID : 1
    Format : AC-3
    Format/Info : Audio Coding 3
    Mode extension : CM (complete main)
    Codec ID : 2000
    Duration : 1h 24mn
    Bit rate mode : Constant
    Bit rate : 192 Kbps
    Channel(s) : 2 channels
    Channel positions : Front: L R
    Sampling rate : 48.0 KHz
    Bit depth : 16 bits
    Compression mode : Lossy
    Stream size : 116 MiB (8%)
    Alignment : Split accross interleaves
    Interleave, duration : 40 ms (1.00 video frame)
    Interleave, preload duration : 500 ms

pb.wtf



Скачать Оптом дешевле через торрент http://i63.fastpic.ru/big/2015/0112/72/6104399f3087e1fb59768f0db166f272.jpg Скачать фильм Оптом дешевле через торрент бесплантно в хорошем качестве Описание: Том и Кейт вместе еще со школы. Они всегда мечтали о большой семье и успешной карьере. Но после рождения первых детей мысли о ... 5.5 10 2
Торрент: Зарегистрирован [2015-02-04 11:53] · скачан: 75 раз
Статус: √ проверено
Размер: 1.35 GB
Как cкачать? Как скачать Оптом дешевле через торрент | UTorrent

% Раздел Тема Автор DL S | L
Фильмы (WEB-DL 720p, 1080p) [ 9.31 GB ] Оптом дешевле / Cheaper by the Dozen [2003 WEB-DL 1080p] + [DVO] + [Ukr] killermax2013 Скачать
1 | 0
Фильмы [HD 720p, 1080p] (Хороший звук DUB, MVO) [ 8.06 GB ] Оптом дешевле 2 / Cheaper by the Dozen 2 [2005 BDRip 1080p ot msltel] DUB msltel Скачать
1 | 0
Фильмы 2001-2005 [ 2 GB ] Оптом дешевле 2 / Cheaper by the Dozen 2 [2005 BDRip AVC ot msltel] DUB msltel Скачать
1 | 0
Фильмы [HD 720p, 1080p] (Хороший звук DUB, MVO) [ 3.14 GB ] Оптом дешевле 2 / Cheaper by the Dozen 2 [2005 BDRip 720p ot msltel] DUB msltel Скачать
1 | 0
Фильмы 2001-2005 [ 2.18 GB ] Оптом дешевле / Cheaper by the Dozen [2003 WEB-DLRip-AVC от sokol_ok] Dub sokol_ok Скачать
2 | 0
Фильмы 2001-2005 [ 1.45 GB ] Оптом дешевле / Cheaper by the Dozen [2003 WEB-DLRip-AVC от sokol_ok] Dub sokol_ok Скачать
2 | 0
Фильмы 2001-2005 [ 744 MB ] Оптом дешевле 2 / Cheaper by the Dozen 2 [2005 HDRip] Dub dexter lex Скачать
1 | 0

28-11-2019 20:33  

Отключить всю рекламу на сайте

    Дорогой пользователь! Огромная просьба, поблагодарите релизера, оцените раздачу и оставьте свои комментарий, если Вы скачали Оптом дешевле через торрент бесплатно! Внесите свою лепту в развитие PiratBit!
    Комментировать посты могут только пользователи прошедшие не сложную регистрацию
    Показать сообщения:    

    Оптом дешевле через торрент
    Скачать бесплатно Оптом дешевле
    Оптом дешевле скачать торрент
    Оптом дешевле смотреть онлайн
    Cкачать фильм Оптом дешевле бесплатно
    Оптом дешевле скачать торрент в хорошем качестве
    Оптом дешевле смотреть онлайн бесплатно в хорошем качестве


    Вы не можете начинать темы
    Вы не можете отвечать на сообщения
    Вы не можете редактировать свои сообщения
    Вы не можете удалять свои сообщения
    Вы не можете голосовать в опросах
    Вы не можете прикреплять файлы к сообщениям
    Вы можете скачивать файлы