MEGA SALE -75% Borderlands 3 Super Deluxe всего за 550р. 180 руб. (супер цена). Внимание количество ограничено!!!

iTunes

1+1

iTunes

мы

iTunes

1

iTunes

Чернобыль

iTunes

Ральф против интернета

Лицензия

ПШазам

Лицензия

Игра престолов

Лицензия

30
pack

ВАЖНО

!!Акция!!

Alien_RageХит недели

RePack

Resident Evil 21

ИГРА 18+

pack

RePack

Metro:Exodus

!!Акция!!

Alien_Rage

RePack

fifa19

RePack

Assassins Creed: Odyssey

RePack

NEED FOR SPEED™ PAYBACK

3 сезон

9 сезон

Бесстыжие 9 сезон

Все сериалы

все сериалы на PB.wtf

RePack

FAR CRY 5
Ребята, катастрофически не хватает 1900р. для оплаты серверов за АВГУСТ (всвязи с блокировками трафик упал в 3 раза), 1-2р., выручайте.
  

Великолепный / Gorgeous / Boh lee chun (Винсент Кок / Vincent Kok) [1999, Гонконг, Тайвань, мелодрама, комедия, боевик, BDRip] [Полная Версия] MVO pb.wtf

Великолепный через торрент pb.wtf

Размер: 1.46 GB | Добавлен: 4 года 8 мес. назад | Торрент скачан:203 раза
Скачать  

04-02-2015 12:04 Великолепный Скачать торрент  

Великолепный / Gorgeous / Boh lee chun
Страна: Гонконг, Тайвань
Жанр: мелодрама, комедия, боевик
Год выпуска: 1999
Продолжительность: 01:59:37
Перевод: Профессиональный (многоголосый закадровый) ОРТ / Первый Канал со вставками AVO Кашкина
Оригинальная аудиодорожка: нет
Cубтитры: нет

Режиссер: Винсент Кок / Vincent Kok

В ролях: Джеки Чан, Шу Ци, Тони Люн Чу Вай, Эмиль Чау, Ричи Рен, Кен Ло, Санг Янг Чен, Илэйн Цзинь, Брэдли Джеймс Аллан, Тац Лау

Описание: Знаменитый мастер восточных единоборств Джеки Чан вновь демонстрирует свою непревзойденную технику и виртуозные трюки в этом великолепном романтическом боевике. Несравненная Бу, девушка из маленькой деревни на берегу океана, приезжает в шумный Гонконг в поисках приключений. Здесь она знакомиться с Ченом — знаменитым миллионером. Но романтическая Золушка не подозревает, что Чен окажется очень опасным кавалером.


Качество: BDRip [BDRemux 1080i]
Формат: AVI
Видео кодек: XviD
Аудио кодек: AC3
Видео: 720x304 (2.37:1), 23.976 fps, XviD build 73 ~1549 kbps avg, 0.29 bit/pixel
Аудио: 48 kHz, AC3 Dolby Digital, 2/0 (L,R) ch, ~192 kbps
Раздача от:
D:\Мои рипы\Gorgeous.1999.bdrip.dexter_lex.avi
General
Complete name : D:\Мои рипы\Gorgeous.1999.bdrip.dexter_lex.avi
Format : AVI
Format/Info : Audio Video Interleave
File size : 1.46 GiB
Duration : 1h 59mn
Overall bit rate : 1 751 Kbps
Writing application : VirtualDubMod 1.5.10.3 | www.virtualdub-fr.org || (build 2550/release)
Writing library : VirtualDubMod build 2550/release
Video #0
ID : 0
Format : MPEG-4 Visual
Format profile : Advanced Simple@L5
Format settings, BVOP : 1
Format settings, QPel : No
Format settings, GMC : No warppoints
Format settings, Matrix : Custom
Codec ID : XVID
Codec ID/Hint : XviD
Duration : 1h 59mn
Bit rate : 1 550 Kbps
Width : 720 pixels
Height : 304 pixels
Display aspect ratio : 2.35:1
Frame rate : 23.976 fps
Color space : YUV
Chroma subsampling : 4:2:0
Bit depth : 8 bits
Scan type : Progressive
Compression mode : Lossy
Bits/(Pixel*Frame) : 0.295
Stream size : 1.29 GiB (88%)
Writing library : XviD 73
Audio #1
ID : 1
Format : AC-3
Format/Info : Audio Coding 3
Mode extension : CM (complete main)
Codec ID : 2000
Duration : 1h 59mn
Bit rate mode : Constant
Bit rate : 192 Kbps
Channel(s) : 2 channels
Channel positions : Front: L R
Sampling rate : 48.0 KHz
Bit depth : 16 bits
Compression mode : Lossy
Stream size : 164 MiB (11%)
Alignment : Split accross interleaves
Interleave, duration : 42 ms (1.00 video frame)
Interleave, preload duration : 500 ms
pb.wtf



Скачать Великолепный через торрент http://i63.fastpic.ru/big/2014/1218/3c/7e0a2f88d5da4906d14d82b801c9d43c.jpg Скачать фильм Великолепный через торрент бесплантно в хорошем качестве Описание: Знаменитый мастер восточных единоборств Джеки Чан вновь демонстрирует свою непревзойденную технику и виртуозные трюки в этом ... 9.9 10 13
Торрент: Зарегистрирован [2015-02-04 12:04] · скачан: 203 раз
Статус: √ проверено
Размер: 1.46 GB
Как cкачать? Как скачать Великолепный через торрент | qTorrent


>> Регистрируемся здесь <<






Отзывы и комментарии о схеме читаем и пишем здесь: ---> Отзывы и комментарии о схеме

Новые благодарочки в телеграм довольных пользователей:
скриншот   скриншот   скриншот   скриншот   скриншот
    Дорогой пользователь! Огромная просьба, поблагодарите релизера, оцените раздачу и оставьте свои комментарий, если Вы скачали Великолепный через торрент бесплатно! Внесите свою лепту в развитие PiratBit!
    Комментировать посты могут только пользователи прошедшие не сложную регистрацию
    Показать сообщения:    

    Великолепный через торрент
    Скачать бесплатно Великолепный
    Великолепный скачать торрент
    Великолепный смотреть онлайн
    Cкачать фильм Великолепный бесплатно
    Великолепный скачать торрент в хорошем качестве
    Великолепный смотреть онлайн бесплатно в хорошем качестве


    Вы не можете начинать темы
    Вы не можете отвечать на сообщения
    Вы не можете редактировать свои сообщения
    Вы не можете удалять свои сообщения
    Вы не можете голосовать в опросах
    Вы не можете прикреплять файлы к сообщениям
    Вы можете скачивать файлы