Присоединяйтесь к нам в Telegram!, здесь всегда актуальный адрес сайта, оперативная поддержка и многое другое!!

>

5.9

iTunes

7.4

iTunes

9.4

1 сезон

1

7.4

2 сезон

7.2

iTunes

7.3

1 сезон

13

6.1

iTunes

8.3

GOG

30

ULTIMATE

pack

9.9

Лицензия

ВАЖНО

ИГРА 18+

pack

7.3

RePack

MK11

7.7

RePack

jed

7.8

RePack

fifa19

8.5

RePack

RDR2

RePack

NEED FOR SPEED™ PAYBACK

5 сезон

9 сезон

Бесстыжие 9 сезон

Все сериалы

все сериалы на PB.wtf

RePack

FAR CRY 5

Anonymous, доброе утро, мы катастрофически не успеваем собрать деньги на оплату серверов, помогите нам пожалуйста 5,10,15р., для нас важна любая помощь . В качестве благодарности мы отключим Вам всю рекламу на сайте (укажите свой ник в строку Ваше имя)!

×
  
Magnet ссылка

Голые файлы / Naked Files 5 [2015 г., Adult music clips, WEB-DLRip 720p, Оригинал] pb.wtf

Голые файлы через торрент pb.wtf

Размер: 2.75 GB | Добавлен: 6 лет 9 мес. назад | Торрент скачан:557 раз
Смотреть онлайн Голые файлы | Скачать    Ребята, помогите собрать деньги на оплату серверов!!!

04-02-2015 15:22 Голые файлы Скачать торрент  

Голые файлы / Naked Files 5
Год выпуска: 2015
Страна: All World
Жанр: Adult music clips
Продолжительность: 02:42:15
Перевод: Оригинал

Описание:

Откровенные кадры, танцы, стриптиз и так далее.... (всё под музыку...) 5 часть.
01. Amelia - The Art of Boudoir [02:45]
02. Las Chicas Natural [02:11]
03. Room Ninety - Nine [04:27]
04. Malice in Wanderland [02:10]
05. Vania Bludau - SoHo Peru [02:19]
06. An Afternoon with Mika [03:50]
07. Karina Jordan - SoHo Peru [01:41]
08. CiCi Ciara - RawBeaver [02:31]
09. Charlotte Devaney - Nice [02:57]
10. Pygmalion [04:24]
11. In Trutina [02:28]
12. Chica Bomb [02:22]
13. Bon Iver - Calgary [04:12]
14. FIAT FROST - Funeral [02:41]
15. Ojos Negros [01:10]
16. Andrea Cifuentes - SoHo Peru [01:38]
17. Paula Avila - Chica Natural [02:09]
18. Calamares [03:42]
19. Оттенки танца [02:41]
20. Wellcome To My Parlor [04:19]
21. FIAT FROST - Fascist Epidemic [02:19]
22. Nadia Ruslanova - Stetson [02:30]
23. Andrea San Martin - Chica Dorada [02:00]
24. Korrozia Metalla - Виновата ли я [02:22]
25. Chainsaw Therapy - The Eyes Never Lie (Remix) [04:04]
26. Annabel Torres - Chica Dorada [02:34]
27. Calvin Harris - Summer (Diplo & Grandtheft Remix) [03:51]
28. Moresebya - Sex Show (viscid) [03:34]
29. Nudes-A-Poppin' 2012 [03:56]
30. Nudes-A-Poppin' 2013 [03:14]
31. Nudes - A - Poppin' 2014 [03:49]
32. Annabel Torres - Chica Natural [02:00]
33. Nirecsic - For my heart, M [03:33]
34. Vanessa Jeri - Chica Dorada [02:20]
35. FREEDOM [04:03]
36. Homegrown Hotties [07:26]
37. Bonfires - Blue foundation Remix [04:30]
38. Xoana Gonzales - Chica Natural [01:41]
39. Nefotograf - Nulook [01:49]
40. Italian Sharon [03:19]
41. Brooklyn is HELL ON HEELS! [01:15]
42. FIAT FROST - Sanctury [04:04]
43. Gosteffects - FVKKOPHPH [02:53]
44. WYM - Empty Desire [05:17]
45. Rebecca and Fiona vs DubVision - Holler Hollow [06:03]
46. Hannah Kelsey - Moving Portrait [02:14]
47. Jitka Branichova [10:00]
48. Korrozia Metalla - Чад Кутежа [03:59]
49. Vania Bludau - Once Bitten, Twice Shy [01:41]
50. Las Chicas Doradas - Legion Argentina [01:45]
Качество: WEB-DLRip 720p
Формат: MP4
Видео кодек: AVC
Аудио кодек: AAC
Видео: AVC, 1280x720,1920x1080 (16:9), 23.976 fps, 4 500 Kbps (0.091 bit/pixel)
Аудио#1: AAC LC, 48.0 KHz, 2 ch, 160 Kbps, VBR
Релиз от: terras
скриншот   скриншот   скриншот   скриншот   скриншот   скриншот  
скриншот   скриншот   скриншот   скриншот   скриншот   скриншот  

Общее
Полное имя : D:\Архив\Клипы\Naked Files 5 (2015)\01. Amelia - The Art of Boudoir.mp4
Формат : MPEG-4
Профиль формата : Base Media / Version 2
Идентификатор кодека : mp42
Размер файла : 93,0 Мбайт
Продолжительность : 2 м. 45 с.
Режим общего битрейта : Переменный
Общий поток : 4714 Кбит/сек
Дата кодирования : UTC 2015-02-04 02:05:00
Дата пометки : UTC 2015-02-04 02:05:00

Видео
Идентификатор : 1
Формат : AVC
Формат/Информация : Advanced Video Codec
Профиль формата : High@L4.0
Параметр CABAC формата : Да
Параметр ReFrames формата : 4 кадра
Идентификатор кодека : avc1
Идентификатор кодека/Информация : Advanced Video Coding
Продолжительность : 2 м. 45 с.
Битрейт : 4500 Кбит/сек
Ширина : 1920 пикселей
Высота : 1080 пикселей
Соотношение сторон : 16:9
Режим частоты кадров : Постоянный
Частота кадров : 23,976 кадра/сек
Цветовое пространство : YUV
Субдискретизация насыщенности : 4:2:0
Битовая глубина : 8 бит
Тип развёртки : Прогрессивная
Бит/(Пиксели*Кадры) : 0.091
Размер потока : 88,3 Мбайт (95%)
Библиотека кодирования : x264 core 142 r11 24e4fed
Настройки программы :
Дата кодирования : UTC 2015-02-04 02:05:00
Дата пометки : UTC 2015-02-04 02:05:00
Основные цвета : BT.709
Характеристики трансфера : BT.709
Коэффициенты матрицы : BT.709

Аудио
Идентификатор : 2
Формат : AAC
Формат/Информация : Advanced Audio Codec
Профиль формата : LC
Идентификатор кодека : 40
Продолжительность : 2 м. 45 с.
Вид битрейта : Переменный
Битрейт : 235 Кбит/сек
Каналы : 2 канала
Расположение каналов : Front: L R
Частота : 48,0 КГц
Метод сжатия : С потерями
Размер потока : 4,64 Мбайт (5%)
Дата кодирования : UTC 2015-02-04 02:05:00
Дата пометки : UTC 2015-02-04 02:05:00

Общее
Полное имя : D:\Архив\Клипы\Naked Files 5 (2015)\02. Las Chicas Natural.mp4
Формат : MPEG-4
Профиль формата : Base Media / Version 2
Идентификатор кодека : mp42
Размер файла : 19,7 Мбайт
Продолжительность : 2 м. 11 с.
Режим общего битрейта : Переменный
Общий поток : 1260 Кбит/сек
Дата кодирования : UTC 2014-11-11 04:36:43
Дата пометки : UTC 2014-11-11 04:36:43

Видео
Идентификатор : 1
Формат : AVC
Формат/Информация : Advanced Video Codec
Профиль формата : High@L3.1
Параметр CABAC формата : Да
Параметр ReFrames формата : 4 кадра
Идентификатор кодека : avc1
Идентификатор кодека/Информация : Advanced Video Coding
Продолжительность : 2 м. 11 с.
Битрейт : 1096 Кбит/сек
Ширина : 1280 пикселей
Высота : 720 пикселей
Соотношение сторон : 16:9
Режим частоты кадров : Постоянный
Частота кадров : 30,000 кадров/сек
Цветовое пространство : YUV
Субдискретизация насыщенности : 4:2:0
Битовая глубина : 8 бит
Тип развёртки : Прогрессивная
Бит/(Пиксели*Кадры) : 0.040
Размер потока : 17,2 Мбайт (87%)
Библиотека кодирования : x264 core 142 r11 dd79a61
Настройки программы : cabac=1 / ref=3 / deblock=1:0:0 / analyse=0x3:0x113 / me=hex / subme=7 / psy=1 / psy_rd=1.00:0.00 / mixed_ref=1 / me_range=16 / chroma_me=1 / trellis=1 / 8x8dct=1 / cqm=0 / deadzone=21,11 / fast_pskip=1 / chroma_qp_offset=-2 / threads=48 / lookahead_threads=5 / sliced_threads=0 / nr=0 / decimate=1 / interlaced=0 / bluray_compat=0 / stitchable=1 / constrained_intra=0 / bframes=3 / b_pyramid=2 / b_adapt=1 / b_bias=0 / direct=1 / weightb=1 / open_gop=0 / weightp=2 / keyint=90 / keyint_min=30 / scenecut=40 / intra_refresh=0 / rc_lookahead=40 / rc=crf / mbtree=1 / crf=20.0 / qcomp=0.60 / qpmin=5 / qpmax=69 / qpstep=4 / vbv_maxrate=2750 / vbv_bufsize=7500 / crf_max=0.0 / nal_hrd=none / filler=0 / ip_ratio=1.40 / aq=1:1.00
Дата кодирования : UTC 2014-11-11 04:36:43
Дата пометки : UTC 2014-11-11 04:36:43
Основные цвета : BT.709
Характеристики трансфера : BT.709
Коэффициенты матрицы : BT.709

Аудио
Идентификатор : 2
Формат : AAC
Формат/Информация : Advanced Audio Codec
Профиль формата : LC
Идентификатор кодека : 40
Продолжительность : 2 м. 11 с.
Вид битрейта : Переменный
Битрейт : 160 Кбит/сек
Каналы : 2 канала
Расположение каналов : Front: L R
Частота : 48,0 КГц
Метод сжатия : С потерями
Размер потока : 2,51 Мбайт (13%)
Дата кодирования : UTC 2014-11-11 04:36:43
Дата пометки : UTC 2014-11-11 04:36:43

pb.wtf



Скачать Голые файлы через торрент https://pic1.kartinco.top/images/81/3bla6.jpg Скачать, смотреть онлайн Голые файлы бесплантно в хорошем качестве Описание: Откровенные кадры, танцы, стриптиз и так далее.... (всё под музыку...) 5 часть. Amelia - The Art of Boudoir [02:45] Las ... 9.6 10 29
Info! Серебряная раздача, засчитывается только 50% скачанного.
Торрент: Зарегистрирован [2015-02-04 15:22] · скачан: 557 раз
Статус: √ проверено
Размер: 2.75 GB
Как cкачать? Как скачать Голые файлы через торрент | UTorrent

28-11-2019 20:33  

Отключить всю рекламу на сайте

    Дорогой пользователь! Огромная просьба, поблагодарите релизера, оцените раздачу и оставьте свои комментарий, если Вы скачали Голые файлы через торрент бесплатно!
    Комментировать посты могут только пользователи прошедшие не сложную регистрацию
    Показать сообщения:    

    Голые файлы через торрент
    Скачать бесплатно Голые файлы
    Голые файлы скачать торрент
    Голые файлы смотреть онлайн
    Cкачать фильм Голые файлы бесплатно
    Голые файлы скачать торрент в хорошем качестве
    Голые файлы смотреть онлайн бесплатно в хорошем качестве


    Вы не можете начинать темы
    Вы не можете отвечать на сообщения
    Вы не можете редактировать свои сообщения
    Вы не можете удалять свои сообщения
    Вы не можете голосовать в опросах
    Вы не можете прикреплять файлы к сообщениям
    Вы можете скачивать файлы