Присоединяйтесь к нам в Telegram!, здесь всегда актуальный адрес сайта, оперативная поддержка и многое другое!!

>

5.9

iTunes

7.4

iTunes

9.4

1 сезон

1

7.4

2 сезон

7.2

iTunes

7.3

1 сезон

13

6.1

iTunes

8.3

GOG

30

ULTIMATE

pack

9.9

Лицензия

ВАЖНО

ИГРА 18+

pack

7.3

RePack

MK11

7.7

RePack

jed

7.8

RePack

fifa19

8.5

RePack

RDR2

RePack

NEED FOR SPEED™ PAYBACK

5 сезон

9 сезон

Бесстыжие 9 сезон

Все сериалы

все сериалы на PB.wtf

RePack

FAR CRY 5

Anonymous, добрый вечер, мы катастрофически не успеваем собрать деньги на оплату серверов, помогите нам пожалуйста 5,10,15р., для нас важна любая помощь . В качестве благодарности мы отключим Вам всю рекламу на сайте (укажите свой ник в строку Ваше имя)!

×
  
Magnet ссылка

Сборник видеоклипов Pet Shop Boys (41 клип) / Pet Shop Boys - PopArt. The Videos [2003 г., Синти-поп, итало-диско, хаус, DVDRip, Оригинал] pb.wtf

Сборник видеоклипов Pet Shop Boys через торрент pb.wtf

Размер: 2.05 GB | Добавлен: 6 лет 9 мес. назад | Торрент скачан:170 раз
Смотреть онлайн Сборник видеоклипов Pet Shop Boys | Скачать    Ребята, помогите собрать деньги на оплату серверов!!!

04-02-2015 17:58 Сборник видеоклипов Pet Shop Boys Скачать торрент  

Сборник видеоклипов Pet Shop Boys (41 клип) / Pet Shop Boys - PopArt. The VideosГод выпуска: 2003
Страна: США Parlophone Records
Жанр: Синти-поп, итало-диско, хаус
Продолжительность: 03:00:00
Перевод: Оригинал

В ролях: Pet Shop Boys

Описание: «PopArt» («Поп-арт») — альбом-компиляция британской поп-группы Pet Shop Boys, на котором собраны синглы коллектива за период 1985-2003 гг. В британском хит-параде альбом достиг 18-ого места. Название альбома интригующе смотрится в CD-издании, где один из дисков называется «Pop» (куда вошли такие композиции, как «Go West», «Se A Vida E», «Domino Dancing»), другой - «Art» ( с трэками «West End Girls», «I Get Along», «Paninaro»), обозначая, что сами музыканты считают искусством, а что развлекательной эстрадой. В отличие от музыкального альбома, на DVD песни расположены в хронологическом порядке.

Качество: DVDRip
Формат: AVI
Видео кодек: XviD
Аудио кодек: AC3
Видео: Xvid 688x512, 25fps, 1210kbps
Аудио: Dolby AC3, 48000Hz, stereo, 256kbps
Релиз от: Nata7
01. Opportunities (Let's Make Lots of Money) (Original Version)
02. West End Girls
03. Love Comes Quickly
04. Opportunities (Let's Make Lots of Money) (Second Version)
05. Suburbia
06. Paninaro
07. It's a Sin
08. What Have I Done to Deserve This?
09. Rent
10. Always on My Mind
11. Heart
12. Domino Dancing
13. Left to My Own Devices
14. It's Alright
15. So Hard
16. Being Boring
17. How Can You Expect to Be Taken Seriously?
18. Where the Streets Have No Name (I Can't Take My Eyes Off You)
19. Jealousy
20. DJ Culture
21. Was It Worth It?
22. Can You Forgive Her?
23. Go West
24. I Wouldn't Normally Do This Kind of Thing
25. Liberation
26. Yesterday, When I Was Mad
27. Paninaro '95
28. Before
29. Se A Vida E (That's the Way Life Is)
30. Single-Bilingual
31. A Red Letter Day
32. Somewhere
33. I Don't Know What You Want but I Can't Give It Any More
34. New York City Boy
35. You Only Tell Me You Love Me When You're Drunk
36. Home and Dry
37. I Get Along / E-mail
38. London
39. Domino Dancing (Extended Version)
40. So Hard (Extended Version)
41. Go West (Extended Version)





General
Complete name : E:\01 02 2014\Pet.Shop.Boys-Pop.Art.The.Videos.(41.klip.iz.41).2003.XviD.DVDRip.Kinozal.TV\Pet.Shop.Boys-Pop.Art.(01.klip.iz.41).2003.XviD.DVDRip.Kinozal.TV.avi
Format : AVI
Format/Info : Audio Video Interleave
File size : 39.4 MiB
Duration : 3mn 43s
Overall bit rate : 1 477 Kbps
Movie name : Pet Shop Boys - Opportunities (Let's Make Lots of Money) - Original Version
Director : Rip by Nata7
Genre : Synthpop
Writing application :
Original source form/Name : Music Clip
Comment : Kinozal.TV

Video
ID : 0
Format : MPEG-4 Visual
Format profile : Advanced Simple@L5
Format settings, BVOP : 1
Format settings, QPel : No
Format settings, GMC : No warppoints
Format settings, Matrix : Default (MPEG)
Muxing mode : Packed bitstream
Codec ID : XVID
Codec ID/Hint : XviD
Duration : 3mn 43s
Bit rate : 1 211 Kbps
Width : 688 pixels
Height : 512 pixels
Display aspect ratio : 4:3
Frame rate : 25.000 fps
Color space : YUV
Chroma subsampling : 4:2:0
Bit depth : 8 bits
Scan type : Progressive
Compression mode : Lossy
Bits/(Pixel*Frame) : 0.138
Stream size : 32.3 MiB (82%)
Writing library : XviD 1.2.0.dev47 (UTC 2006-11-01)

Audio
ID : 1
Format : AC-3
Format/Info : Audio Coding 3
Mode extension : CM (complete main)
Format settings, Endianness : Big
Codec ID : 2000
Duration : 3mn 43s
Bit rate mode : Constant
Bit rate : 256 Kbps
Channel(s) : 2 channels
Channel positions : Front: L R
Sampling rate : 48.0 KHz
Bit depth : 16 bits
Compression mode : Lossy
Stream size : 6.82 MiB (17%)
Alignment : Split accross interleaves
Interleave, duration : 40 ms (1.00 video frame)
Interleave, preload duration : 500 ms

pb.wtf



Скачать Сборник видеоклипов Pet Shop Boys через торрент http://i57.fastpic.ru/big/2015/0204/5e/866e6ecda93c18a75e5bd1fc44af925e.png Скачать, смотреть онлайн Сборник видеоклипов Pet Shop Boys бесплантно в хорошем качестве Описание: «PopArt» («Поп-арт») — альбом-компиляция британской поп-группы Pet Shop Boys, на котором собраны синглы коллектива за период ... 9.9 10 11
Info! Серебряная раздача, засчитывается только 50% скачанного.
Торрент: Зарегистрирован [2015-02-04 17:58] · скачан: 170 раз
Статус: √ проверено
Размер: 2.05 GB
Как cкачать? Как скачать Сборник видеоклипов Pet Shop Boys через торрент | UTorrent

28-11-2019 20:33  

Отключить всю рекламу на сайте

    Дорогой пользователь! Огромная просьба, поблагодарите релизера, оцените раздачу и оставьте свои комментарий, если Вы скачали Сборник видеоклипов Pet Shop Boys через торрент бесплатно!
    Комментировать посты могут только пользователи прошедшие не сложную регистрацию
    Показать сообщения:    

    Сборник видеоклипов Pet Shop Boys через торрент
    Скачать бесплатно Сборник видеоклипов Pet Shop Boys
    Сборник видеоклипов Pet Shop Boys скачать торрент
    Сборник видеоклипов Pet Shop Boys смотреть онлайн
    Cкачать фильм Сборник видеоклипов Pet Shop Boys бесплатно
    Сборник видеоклипов Pet Shop Boys скачать торрент в хорошем качестве
    Сборник видеоклипов Pet Shop Boys смотреть онлайн бесплатно в хорошем качестве


    Вы не можете начинать темы
    Вы не можете отвечать на сообщения
    Вы не можете редактировать свои сообщения
    Вы не можете удалять свои сообщения
    Вы не можете голосовать в опросах
    Вы не можете прикреплять файлы к сообщениям
    Вы можете скачивать файлы