Ссылка на приватное зеркало нашего сайта всего за 1$. Внимание количество ограничено!!!

2 сезон

iTunes

1 сезон

1

2 сезон

2 сезон

iTunes

1 сезон

RePack

30

Новинка

ВАЖНО

ИГРА 18+

pack

RePack

MK11
pack

Забери бонус

RePack

jed

!!Акция!!

Alien_Rage

RePack

fifa19

RePack

Assassins Creed: Odyssey

RePack

NEED FOR SPEED™ PAYBACK

4 сезон

9 сезон

Бесстыжие 9 сезон

Все сериалы

все сериалы на PB.wtf

RePack

FAR CRY 5
  

РеГенезис / ReGenesis / Сезон: Сезон: 1-4 из 4 / Серии: 1-52 серии из 52 (Дон МакБрити, Джерри Чиккоритти) [2004-2008, Драма, фантастика, DVDRip] (MVO-1ТВЧ) pb.wtf

РеГенезис через торрент pb.wtf

Размер: 17.69 GB | Добавлен: 5 лет 9 мес. назад | Торрент скачан:20 раз
Скачать  

05-02-2015 08:38 РеГенезис Скачать торрент  

РеГенезис / ReGenesis
Год выпуска: 2004-2008
Страна: Канада
Жанр: Драма, фантастика
Продолжительность: ~ 00:46:00
Перевод: Профессиональный многоголосый(1ТВЧ)

Режиссер: Дон МакБрити, Джерри Чиккоритти




В ролях: Мэйко Нгуйен, Питер Аутербридж, Конрад Пла, Дмитрий Чеповецкий, Грег Брайк, Максим Рой, Сара Стрэйндж, Майкл Ситер, Венди Крюсон, Эллен Пейдж

Описание: Начало XXI века принесло жителям Земли новые проблемы. В руках террористов с университетскими дипломами оказалось не только старое биологическое оружие ? возбудители чумы и сибирской язвы, но и новые, гораздо более опасные микроорганизмы. Вирусы гриппа начали мутировать с необыкновенной скоростью. Появились и совсем неизвестные ученым возбудители болезней. Человечеству стали грозить все более страшные эпидемии.

Чтобы бороться с новыми угрозами, в Канаде была создана передовая биотехнологическая лаборатория NorBAC, или Северо-Американская комиссия по биотехнологиям. Ее возглавляет известнейший ученый Дэвид Сандстрем (Питер Аутербридж). Опытные специалисты под его руководством помогают решать самые сложные проблемы с инфекциями по всей Северной Америке. Причем далеко не все расследования NorBAC связаны только с химией, биотехнологией и медициной. Ученым все чаще приходится отстаивать свою независимость от властей, делать сложный нравственный или политический выбор…

Качество: DVDRip
Формат: AVI
Видео кодек: XviD
Аудио кодек: AC3
Видео: 624x352 (1.77:1), 25.000 fps, 4 156 Kbps (0.192 bit/pixel)
Аудио#1: 48.0 KHz, 2 ch, 192 Kbps, CBR
General
Complete name : G:\Сериалы\РеГенезис ReGenesis\ReGenesis\ReGenesis-1\ReGenesis-1,01 and 02.avi
Format : AVI
Format/Info : Audio Video Interleave
File size : 694 MiB
Duration : 1h 31mn
Overall bit rate : 1 060 Kbps
Writing application : VirtualDubMod 1.5.10.2 (build 2540/release)
Writing library : VirtualDubMod build 2540/release

Video
ID : 0
Format : MPEG-4 Visual
Format profile : Advanced Simple@L5
Format settings, BVOP : 2
Format settings, QPel : No
Format settings, GMC : No warppoints
Format settings, Matrix : Default (H.263)
Muxing mode : Packed bitstream
Codec ID : XVID
Codec ID/Hint : XviD
Duration : 1h 31mn
Bit rate : 922 Kbps
Width : 624 pixels
Height : 352 pixels
Display aspect ratio : 16:9
Frame rate : 23.976 fps
Color space : YUV
Chroma subsampling : 4:2:0
Bit depth : 8 bits
Scan type : Progressive
Compression mode : Lossy
Bits/(Pixel*Frame) : 0.175
Stream size : 604 MiB (87%)
Writing library : XviD 1.0.2 (UTC 2004-08-29)

Audio
ID : 1
Format : MPEG Audio
Format version : Version 1
Format profile : Layer 3
Mode : Joint stereo
Mode extension : MS Stereo
Codec ID : 55
Codec ID/Hint : MP3
Duration : 1h 31mn
Bit rate mode : Constant
Bit rate : 128 Kbps
Channel(s) : 2 channels
Sampling rate : 48.0 KHz
Compression mode : Lossy
Stream size : 83.9 MiB (12%)
Alignment : Aligned on interleaves
Interleave, duration : 42 ms (1.00 video frame)
Interleave, preload duratio : 504 ms

pb.wtf



Скачать РеГенезис через торрент http://i57.fastpic.ru/big/2015/0205/84/b73326f59878f7dbdd59fd58f85a3484.jpg Скачать фильм РеГенезис через торрент бесплантно в хорошем качестве Описание: Начало XXI века принесло жителям Земли новые проблемы. В руках террористов с университетскими дипломами оказалось не только ... 9.8 10 5
Info! Золотая раздача, скачанное не засчитывается.
Торрент: Зарегистрирован [2015-02-05 08:38] · скачан: 20 раз
Статус: √ проверено
Размер: 17.69 GB
Как cкачать? Как скачать РеГенезис через торрент | qTorrent

28-11-2019 20:33  

Отключить всю рекламу на сайте

    Дорогой пользователь! Огромная просьба, поблагодарите релизера, оцените раздачу и оставьте свои комментарий, если Вы скачали РеГенезис через торрент бесплатно! Внесите свою лепту в развитие PiratBit!
    Комментировать посты могут только пользователи прошедшие не сложную регистрацию
    Показать сообщения:    

    РеГенезис через торрент
    Скачать бесплатно РеГенезис
    РеГенезис скачать торрент
    РеГенезис смотреть онлайн
    Cкачать фильм РеГенезис бесплатно
    РеГенезис скачать торрент в хорошем качестве
    РеГенезис смотреть онлайн бесплатно в хорошем качестве


    Вы не можете начинать темы
    Вы не можете отвечать на сообщения
    Вы не можете редактировать свои сообщения
    Вы не можете удалять свои сообщения
    Вы не можете голосовать в опросах
    Вы не можете прикреплять файлы к сообщениям
    Вы можете скачивать файлы