Присоединяйтесь к нам в Telegram!, здесь всегда актуальный адрес сайта, оперативная поддержка и многое другое!!

>

5.9

iTunes

7.4

iTunes

9.4

1 сезон

1

7.4

2 сезон

7.2

iTunes

7.3

1 сезон

13

6.1

iTunes

8.3

GOG

30

ULTIMATE

pack

9.9

Лицензия

ВАЖНО

ИГРА 18+

pack

7.3

RePack

MK11

7.7

RePack

jed

7.8

RePack

fifa19

8.5

RePack

RDR2

RePack

NEED FOR SPEED™ PAYBACK

5 сезон

9 сезон

Бесстыжие 9 сезон

Все сериалы

все сериалы на PB.wtf

RePack

FAR CRY 5

Anonymous, доброе утро, мы катастрофически не успеваем собрать деньги на оплату серверов, помогите нам пожалуйста 5,10,15р., для нас важна любая помощь . В качестве благодарности мы отключим Вам всю рекламу на сайте (укажите свой ник в строку Ваше имя)!

×
  
Magnet ссылка

Ваниле.лт / Vanile. lt vol. 1 [2015 г., Adult erotic music clips, WEB-DLRip 720p, Оригинал] pb.wtf

Ваниле.лт через торрент pb.wtf

Качают: 1 [ 0 KB/s ]
Размер: 4.74 GB | Добавлен: 6 лет 9 мес. назад | Торрент скачан:155 раз
Смотреть онлайн Ваниле.лт | Скачать    Ребята, помогите собрать деньги на оплату серверов!!!

05-02-2015 12:33 Ваниле.лт Скачать торрент  

Ваниле.лт / Vanile. lt vol. 1
Год выпуска: 2015
Страна: Lithuania
Жанр: Adult erotic music clips
Продолжительность: 02:33:39
Перевод: Оригинал

В ролях: Литовски девочки

Описание:
00. HDV видео Демонстрация
01. Агне - На крыше в свитере
02. Эрика - Садо Мазо
03. Эгле - Пляж
04. Симона - Лестницы гостиницы
05. Виталия - Кровать аппартаментов
06. Агне - Мостик
07. Анжелика - Кресло
08. Ауксе - Паб проспекта
09. Диана - Сверху
10. Гинтаре - Жаркая банька
11. Агне - Шанса
12. Эрика - Кожанный диван
13. Наталья - Страсть на белом
14. Гедре - Тигрёнок ч.1
15. Гедре - Тигрёнок ч.2
16. Гинтаре - Золото
17. Диана - Ни когда не обманет
18. Аушра - Сливки и шоколад
19. Агне - Королевсое ложе
20. Аурелия - В душе
21. Эрика - Между дверей
22. Риманте - Мужские игрушки
23. Эрика - Жажда
24. Гинтаре - Мотоцикл
25. Индре - Ванильный десерт
26. Рута - Дикий пляж
27. Агне - В кровати со шляпкой
28. Ирена - Баня
29. Аквиле - Голубой бассейн
30. Аурелия - Масло
31. Риманте - Опять по шпалам
32. Роберта - Барменша
33. Аквиле - Фотосессия в лесу
34. Наталья - Танец в душе
35. Симона - Кровать в гостинице
36. Алиса - Как снимается клип
37. Юргита - Мечтательница
Качество: WEB-DLRip 720p
Формат: MP4
Видео кодек: MPEG4
Аудио кодек: AAC
Видео: MPEG4, 1280x720 (16:9), 29.970 fps, 3 863 Kbps (0.140 bit/pixel)
Аудио#1: AAC LC, 44.1 KHz, 2 ch, 148 Kbps, VBR (Lithuanian)
Общее
Полное имя : D:\Архив\Клипы\Vanile. lt vol. 1\03. Эгле - Пляж.mp4
Формат : MPEG-4
Профиль формата : Base Media
Идентификатор кодека : isom
Размер файла : 103 Мбайт
Продолжительность : 3 м. 8 с.
Режим общего битрейта : Переменный
Общий поток : 4555 Кбит/сек
Программа кодирования : Lavf55.19.104

Видео
Идентификатор : 1
Формат : MPEG-4 Visual
Профиль формата : Simple@L1
Параметр BVOP формата : Нет
Параметр QPel формата : Нет
Параметр GMC формата : Без точки перехода
Параметр матрицы формата : Default (H.263)
Идентификатор кодека : 20
Продолжительность : 3 м. 8 с.
Вид битрейта : Переменный
Битрейт : 4444 Кбит/сек
Ширина : 1280 пикселей
Высота : 720 пикселей
Соотношение сторон : 16:9
Режим частоты кадров : Постоянный
Частота кадров : 29,970 кадров/сек
Цветовое пространство : YUV
Субдискретизация насыщенности : 4:2:0
Битовая глубина : 8 бит
Тип развёртки : Прогрессивная
Метод сжатия : С потерями
Бит/(Пиксели*Кадры) : 0.161
Размер потока : 99,0 Мбайт (97%)
Библиотека кодирования : Lavc55.39.101
Язык : English

Аудио
Идентификатор : 2
Формат : AAC
Формат/Информация : Advanced Audio Codec
Профиль формата : LC
Идентификатор кодека : 40
Продолжительность : 3 м. 8 с.
Вид битрейта : Переменный
Битрейт : 149 Кбит/сек
Максимальный битрейт : 192 Кбит/сек
Каналы : 2 канала
Расположение каналов : Front: L R
Частота : 44,1 КГц
Метод сжатия : С потерями
Размер потока : 3,36 Мбайт (3%)
Язык : English

pb.wtf



Скачать Ваниле.лт через торрент https://pic1.kartinco.top/images/9/pthkx.jpg Скачать, смотреть онлайн Ваниле.лт бесплантно в хорошем качестве Описание:00. HDV видео Демонстрация Агне - На крыше в свитере Эрика - Садо Мазо Эгле - Пляж Симона - Лестницы гостиницы ... 8.8 10 15
Info! Золотая раздача, скачанное не засчитывается.
Торрент: Зарегистрирован [2015-02-05 12:33] · скачан: 155 раз
Статус: √ проверено
Размер: 4.74 GB
Как cкачать? Как скачать Ваниле.лт через торрент | UTorrent

28-11-2019 20:33  

Отключить всю рекламу на сайте

06-02-2015 16:35 Ваниле.лт Скачать торрент  

terras, ссылки на посторонние ресурсы на постере и в оформлении согласованы с админами сайта?pb.wtf



06-02-2015 19:01 Ваниле.лт Скачать торрент  

sdolotov писал(а):

terras, ссылки на посторонние ресурсы на постере и в оформлении согласованы с админами сайта?

Отвечаю тут и там, я не могу сам убрать эти ссылки www.. и так далее, потому что так и было... я понимаю что наверно нельзя и это не реклама ресурса (портала) просто так и было и чтож если нельзя значит нельзя....закрывайте.pb.wtf



07-02-2015 06:01 Ваниле.лт Скачать торрент  

sdolotov писал(а):

terras, ссылки на посторонние ресурсы на постере и в оформлении согласованы с админами сайта?

lithuania respect :сonn:pb.wtf



    Дорогой пользователь! Огромная просьба, поблагодарите релизера, оцените раздачу и оставьте свои комментарий, если Вы скачали Ваниле.лт через торрент бесплатно!
    Комментировать посты могут только пользователи прошедшие не сложную регистрацию
    Показать сообщения:    

    Ваниле.лт через торрент
    Скачать бесплатно Ваниле.лт
    Ваниле.лт скачать торрент
    Ваниле.лт смотреть онлайн
    Cкачать фильм Ваниле.лт бесплатно
    Ваниле.лт скачать торрент в хорошем качестве
    Ваниле.лт смотреть онлайн бесплатно в хорошем качестве


    Вы не можете начинать темы
    Вы не можете отвечать на сообщения
    Вы не можете редактировать свои сообщения
    Вы не можете удалять свои сообщения
    Вы не можете голосовать в опросах
    Вы не можете прикреплять файлы к сообщениям
    Вы можете скачивать файлы