2 сезон

iTunes

MVO

1

2 сезон

iTunes

iTunes

1 сезон

RePack

30

Новинка

ВАЖНО

ИГРА 18+

pack

RePack

MK11
pack

Легкие деньги

RePack

jed

RePack

fifa19

RePack

RDR2

RePack

NEED FOR SPEED™ PAYBACK

4 сезон

9 сезон

Бесстыжие 9 сезон

Все сериалы

все сериалы на PB.wtf

RePack

FAR CRY 5

Anonymous, доброй ночи, мы не успеваем собрать деньги на оплату серверов за декабрь и январь, помогите нам пожалуйста в это трудное время. В качестве благодарности мы отключим Вам всю рекламу на сайте (укажите свой ник в строку Ваше имя)!

×
  
Magnet ссылка

Ваниле.лт / Vanile. lt vol. 2 [2015 г., Adult erotic music clips, WEB-DLRip 720p, Оригинал] pb.wtf

Ваниле.лт через торрент pb.wtf

Качают: 1 [ 0 KB/s ]
Размер: 4.91 GB | Добавлен: 5 лет 11 мес. назад | Торрент скачан:82 раза
Скачать  

06-02-2015 03:38 Ваниле.лт Скачать торрент  

Ваниле.лт / Vanile. lt vol. 2
Год выпуска: 2015
Страна: Lithuania
Жанр: Adult erotic music clips
Продолжительность: 02:30:00
Перевод: Оригинал

В ролях: Литовские девочки

Описание:
38. Виталия - Ретро эротика
39. Эгле - Хочу приготовить улыбку
40. Бригита - Пентхауз
41. Роберта - Барменша клуба
42. Эрика - В шубке на лестнице
43. Ангел - Зайчик
44. Эгле - В ожидании пациента
45. Симона - Гостиница в розовом
46. Габия
47. Анжелика - Разговор на диванчике
48. Диана - Удовлетворение на коже
49. Аушра - Поместье
50. Рената - Раздевалка в сауне
51. Индре - Как всё изменилось
52. Наталья - За кулисами
53. Эрика - Тобулибе
54. Симона - В белом
55. Анжелика - Эффект
56. Индре - О прекрасном
57. Рената - Интересная книга
58. Наталья - Без названия
59. Эрика - Невинная девочка
60. Анжелика - Настоящая эротика
61. Вириния - Лестница
62. Диана - На мостике
63. Эрика - В душе
64. Анжелика - Тигринное бельё
65. Симона - Ванна
66. Аурелия - Фотосессия у бассейна
67. Роберта - Зимнее время
68. Анжелика - В жёлтом
69. Эгле - В солнечных лучах
70. Виргиния - На кровати
71. Анжелика - В розовом
72. Эрика - Макияж у окна
73. Риманте - Игра с мужской одеждой
74. Аушра - Бар
75. Эрика - Реальный сон
Качество: WEB-DLRip 720p
Формат: MP4
Видео кодек: MPEG4
Аудио кодек: AAC
Видео: MPEG4, 1280x720 (16:9), 29.970 fps, 4 027 Kbps (0.146 bit/pixel)
Аудио#1: AAC LC, 44.1 KHz, 2 ch, 152 Kbps, VBR (Lithuanian)
скриншот   скриншот   скриншот   скриншот   скриншот  
скриншот   скриншот   скриншот   скриншот   скриншот  

Полное имя : D:\Архив\Клипы\Vanile. lt vol. 2\38. Виталия - Ретро эротика.mp4
Формат : MPEG-4
Профиль формата : Base Media
Идентификатор кодека : isom
Размер файла : 76,4 Мбайт
Продолжительность : 2 м. 33 с.
Режим общего битрейта : Переменный
Общий поток : 4184 Кбит/сек
Программа кодирования : Lavf55.19.104

Видео
Идентификатор : 1
Формат : MPEG-4 Visual
Профиль формата : Simple@L1
Параметр BVOP формата : Нет
Параметр QPel формата : Нет
Параметр GMC формата : Без точки перехода
Параметр матрицы формата : Default (H.263)
Идентификатор кодека : 20
Продолжительность : 2 м. 33 с.
Вид битрейта : Переменный
Битрейт : 4027 Кбит/сек
Максимальный битрейт : 4444 Кбит/сек
Ширина : 1280 пикселей
Высота : 720 пикселей
Соотношение сторон : 16:9
Режим частоты кадров : Постоянный
Частота кадров : 29,970 кадров/сек
Цветовое пространство : YUV
Субдискретизация насыщенности : 4:2:0
Битовая глубина : 8 бит
Тип развёртки : Прогрессивная
Метод сжатия : С потерями
Бит/(Пиксели*Кадры) : 0.146
Размер потока : 73,5 Мбайт (96%)
Библиотека кодирования : Lavc55.39.101
Язык : Lithuanian

Аудио
Идентификатор : 2
Формат : AAC
Формат/Информация : Advanced Audio Codec
Профиль формата : LC
Идентификатор кодека : 40
Продолжительность : 2 м. 33 с.
Вид битрейта : Переменный
Битрейт : 152 Кбит/сек
Максимальный битрейт : 192 Кбит/сек
Каналы : 2 канала
Расположение каналов : Front: L R
Частота : 44,1 КГц
Метод сжатия : С потерями
Размер потока : 2,78 Мбайт (4%)
Язык : Lithuanian

pb.wtf



Скачать Ваниле.лт через торрент http://pic1.kartinco.top/images/9/zum32.jpg Скачать фильм Ваниле.лт через торрент бесплантно в хорошем качестве Описание:38. Виталия - Ретро эротика39. Эгле - Хочу приготовить улыбку40. Бригита - Пентхауз4 Роберта - Барменша клуба4 Эрика - В шубке ... 10 10 9
Info! Золотая раздача, скачанное не засчитывается.
Торрент: Зарегистрирован [2015-02-06 03:38] · скачан: 82 раз
Статус: √ проверено
Размер: 4.91 GB
Как cкачать? Как скачать Ваниле.лт через торрент | UTorrent

28-11-2019 20:33  

Отключить всю рекламу на сайте

06-02-2015 16:37 Ваниле.лт Скачать торрент  

terras, тот же самый вопрос, что и тут Ваниле.лт / Vanile. lt vol. 1 pb.wtf



06-02-2015 19:00 Ваниле.лт Скачать торрент  

sdolotov писал(а):

terras, тот же самый вопрос, что и тут Ваниле.лт / Vanile. lt vol. 1

Отвечаю тут и там, я не могу сам убрать эти ссылки www.. и так далее, потому что так и было... я понимаю что наверно нельзя и это не реклама ресурса (портала) просто так и было и чтож если нельзя значит нельзя....закрывайте.pb.wtf



06-02-2015 19:57 Ваниле.лт Скачать торрент  

terras писал(а):

Описание:
Vanile. lt - эротический портал знакомств для взрослых, знакомитесь и любите!
Vol.2

это тоже не можете убрать?)))pb.wtf



    Дорогой пользователь! Огромная просьба, поблагодарите релизера, оцените раздачу и оставьте свои комментарий, если Вы скачали Ваниле.лт через торрент бесплатно! Внесите свою лепту в развитие PiratBit!
    Комментировать посты могут только пользователи прошедшие не сложную регистрацию
    Показать сообщения:    

    Ваниле.лт через торрент
    Скачать бесплатно Ваниле.лт
    Ваниле.лт скачать торрент
    Ваниле.лт смотреть онлайн
    Cкачать фильм Ваниле.лт бесплатно
    Ваниле.лт скачать торрент в хорошем качестве
    Ваниле.лт смотреть онлайн бесплатно в хорошем качестве


    Вы не можете начинать темы
    Вы не можете отвечать на сообщения
    Вы не можете редактировать свои сообщения
    Вы не можете удалять свои сообщения
    Вы не можете голосовать в опросах
    Вы не можете прикреплять файлы к сообщениям
    Вы можете скачивать файлы