Ссылка на приватное зеркало нашего сайта всего за 1$. Внимание количество ограничено!!!

2 сезон

iTunes

1 сезон

1

iTunes

iTunes

iTunes

1 сезон

RePack

30

ИГРА 18+

pack

ВАЖНО

!!Акция!!

Alien_RageХит недели

RePack

MK11
pack

Забери бонус

RePack

jed

!!Акция!!

Alien_Rage

RePack

fifa19

RePack

Assassins Creed: Odyssey

RePack

NEED FOR SPEED™ PAYBACK

4 сезон

9 сезон

Бесстыжие 9 сезон

Все сериалы

все сериалы на PB.wtf

RePack

FAR CRY 5
  

Подозрение (1-4 серии из 4) (Арменак Назикян) [2015 г., Детектив, криминал, SATRip] pb.wtf

Подозрение через торрент pb.wtf

Размер: 2.36 GB | Добавлен: 5 лет 8 мес. назад | Торрент скачан:749 раз
Скачать  

06-02-2015 20:29 Подозрение Скачать торрент  

ПодозрениеГод выпуска: 2015
Страна: Россия Триикс Медиа
Жанр: Детектив, криминал
Продолжительность: 4 x ~ 00:44:00

Режиссер: Арменак Назикян
Продюссер: Инесса Юрченко, Сергей Щеглов
Сценарий: Андрей Тумаркин

Премьера в мире: 6 февраля 2015 В ролях: Владислав Резник, Евгений Воловенко, Наталья Круглова, Елена Карпова, Игорь Филиппов, Никита Морозов, Константин Фисенко, Виталий Кривонос, Сергей Малюгов, Исса Дауров

Описание: В Северной столице сотрудники ФСБ ведут разработку организованной преступной группы, возглавляет которую вор в законе по кличке Соха. Особый интерес у спецслужб вызывают данные о связях криминальной верхушки с представителями иностранной разведки. Неожиданно погибают все члены ОПГ, замеченные в контактах с зарубежными агентами. Проанализировав ситуацию, руководство ФСБ приходит к выводу, что кто-то, имевший доступ к секретным материалам, намеренно слил информацию. Подозрение падает на Юрия Иванова из отдела по борьбе с организованной преступностью. Его друга, майора ФСБ Павла Трофимова вызывают на ковер… Юрий и Павел дружили со школы, вместе поступали в Академию ФСБ. В предательство верного друга майор не верит. Ситуация накаляется, когда Трофимов понимает: ликвидация членов ОПГ не случайна, и, по всей видимости иностранная разведка осуществляет какую-то операцию на территории России. Чтобы узнать это наверняка и вывести «крота» на чистую воду, у Павла есть всего несколько дней. А что, если предателем на самом деле окажется его лучший друг?

Качество: SATRip
Формат: AVI
Видео кодек: XviD
Аудио кодек: MP3
Видео: Xvid 720x448, 25fps, 1795kbps
Аудио: MP3, 48000Hz, stereo, 128kbps
Релиз от: zeka80
Скриншоты:
скриншот   скриншот   скриншот   скриншот   скриншот  




General
Complete name : E:\01 02 2014\Podozrenie.SATRip\Podozrenie.1.SATRip.avi
Format : AVI
Format/Info : Audio Video Interleave
File size : 602 MiB
Duration : 43mn 34s
Overall bit rate : 1 933 Kbps
Writing application : VirtualDubMod 1.5.10.3| (build 2550/release)
Writing library : VirtualDub build 32507/release

Video
ID : 0
Format : MPEG-4 Visual
Format profile : Advanced Simple@L5
Format settings, BVOP : 2
Format settings, QPel : No
Format settings, GMC : No warppoints
Format settings, Matrix : Default (MPEG)
Codec ID : XVID
Codec ID/Hint : XviD
Duration : 43mn 34s
Bit rate : 1 795 Kbps
Width : 720 pixels
Height : 448 pixels
Display aspect ratio : 1.607
Frame rate : 25.000 fps
Color space : YUV
Chroma subsampling : 4:2:0
Bit depth : 8 bits
Scan type : Progressive
Compression mode : Lossy
Bits/(Pixel*Frame) : 0.223
Stream size : 559 MiB (93%)
Writing library : XviD 1.2.1 (UTC 2008-12-04)

Audio
ID : 1
Format : MPEG Audio
Format version : Version 1
Format profile : Layer 3
Mode : Joint stereo
Codec ID : 55
Codec ID/Hint : MP3
Duration : 43mn 34s
Bit rate mode : Constant
Bit rate : 128 Kbps
Channel(s) : 2 channels
Sampling rate : 48.0 KHz
Compression mode : Lossy
Stream size : 39.9 MiB (7%)
Alignment : Aligned on interleaves
Interleave, duration : 40 ms (1.00 video frame)
Interleave, preload duration : 504 ms
Writing library : LAME3.99r
Encoding settings : -m j -V 4 -q 2 -lowpass 17 -b 128

pb.wtf



Скачать Подозрение через торрент http://pic.kartinco.top/images/8/4bqnc.jpg Скачать фильм Подозрение через торрент бесплантно в хорошем качестве Описание: В Северной столице сотрудники ФСБ ведут разработку организованной преступной группы, возглавляет которую вор в законе по кличке ... 9.6 10 25
Info! Серебряная раздача, засчитывается только 50% скачанного.
Торрент: Зарегистрирован [2015-02-06 20:29] · скачан: 749 раз
Статус: √ проверено
Размер: 2.36 GB
Как cкачать? Как скачать Подозрение через торрент | qTorrent

% Раздел Тема Автор DL S | L
Фильмы 2019-2020 [DVDrip, WEB-DLRip, HDrip] (DUB, MVO) [ 1.46 GB ] Роковая связь / Вне подозрений / Above Suspicion [2019 BDRip] MVO bober100 Скачать
5 | 0
Фильмы [HD 720p, 1080p] (Хороший звук DUB, MVO) [ 9.23 GB ] Роковая связь / Вне подозрений / Above Suspicion [2019 BDRip 1080p] MVO bober100 Скачать
9 | 0
Фильмы (Blu-ray, BD-Remux, HDDVD) [ 27.29 GB ] Роковая связь / Вне подозрений / Above Suspicion [2019 BD Remux 1080p] MVO bober100 Скачать
2 | 0
Фильмы [HD 720p, 1080p] (Хороший звук DUB, MVO) [ 4.1 GB ] Роковая связь / Вне подозрений / Above Suspicion [2019 BDRip 720p] MVO bober100 Скачать
7 | 0
Фильмы 2019-2020 [DVDrip, WEB-DLRip, HDrip] (DUB, MVO) [ 744 MB ] Роковая связь / Вне подозрений / Above Suspicion [2019 WEB-DLRip] MVO bober100 Скачать
3 | 0
Фильмы (WEB-DL 720p, 1080p) [ 3.63 GB ] Роковая связь / Вне подозрений / Above Suspicion [2019 WEB-DL 1080p] MVO bober100 Скачать
3 | 0
Наши сериалы [ 7.38 GB ] Подозрение / Серии: 1-4 из 4 [2015 HDTVRip 720p] bober100 Скачать
1 | 0

28-11-2019 20:33  

Отключить всю рекламу на сайте

14-02-2015 07:49 Подозрение Скачать торрент  

смотреть можноpb.wtf



    Дорогой пользователь! Огромная просьба, поблагодарите релизера, оцените раздачу и оставьте свои комментарий, если Вы скачали Подозрение через торрент бесплатно! Внесите свою лепту в развитие PiratBit!
    Комментировать посты могут только пользователи прошедшие не сложную регистрацию
    Показать сообщения:    

    Подозрение через торрент
    Скачать бесплатно Подозрение
    Подозрение скачать торрент
    Подозрение смотреть онлайн
    Cкачать фильм Подозрение бесплатно
    Подозрение скачать торрент в хорошем качестве
    Подозрение смотреть онлайн бесплатно в хорошем качестве


    Вы не можете начинать темы
    Вы не можете отвечать на сообщения
    Вы не можете редактировать свои сообщения
    Вы не можете удалять свои сообщения
    Вы не можете голосовать в опросах
    Вы не можете прикреплять файлы к сообщениям
    Вы можете скачивать файлы