Ссылка на приватное зеркало нашего сайта всего за 1$. Внимание количество ограничено!!!

2 сезон

iTunes

1 сезон

1

iTunes

iTunes

iTunes

1 сезон

RePack

30

ИГРА 18+

pack

ВАЖНО

!!Акция!!

Alien_RageХит недели

RePack

MK11
pack

Забери бонус

RePack

jed

!!Акция!!

Alien_Rage

RePack

fifa19

RePack

Assassins Creed: Odyssey

RePack

NEED FOR SPEED™ PAYBACK

4 сезон

9 сезон

Бесстыжие 9 сезон

Все сериалы

все сериалы на PB.wtf

RePack

FAR CRY 5
  

Мальчишник по-ирландски / The Stag (Джон Батлер / John Butler) [2013, Ирландия, комедия, BDRip 1080p, Профессиональный многоголосый - Лицензия] pb.wtf

Мальчишник по-ирландски через торрент pb.wtf

Размер: 6.85 GB | Добавлен: 5 лет 8 мес. назад | Торрент скачан:72 раза
Скачать  

07-02-2015 02:54 Мальчишник по-ирландски Скачать торрент  

Мальчишник по-ирландски / The Stag

Год выпуска: 2013
Страна: Ирландия
Жанр: комедия
Продолжительность: 01:34:16
Перевод: Профессиональный многоголосый [Лицензия]
Субтитры: русские, английские
Режиссер: Джон Батлер / John Butler
В ролях:


Эндрю Скотт (Davin), Хью О’Конор (Fionnan), Питер МакДональд (The Machine), Брин Глисон (Simon), Майкл Лидж (Little Kevin), Эндрю Беннетт (Big Kevin), Эми Хубермэн (Ruth), Марселла Планкетт (Uli), Джастин Митчелл (Linda), Эми Де Брюн (Rachel), Эми Стефенсон (Suzanne), Hannah Brogan (Girls on bus)

Описание:
Как организовать крутой и запоминающийся мальчишник? Есть масса способов: например, проиграть состояние в Вегасе или напиться до беспамятства в Бангкоке. А можно последовать традициям настоящих ирландских мужчин - и двинуть в лес. Здесь, вдали от цивилизации и экстренных служб, вас ничто не остановит. И живые позавидуют мертвым.

Рейтинг:
Бюджет: €600 000
Качество: BDRip 1080p
Формат: MKV
Видео кодек:AVC
Аудио кодек:AC3, DTS
Видео: AVC, 1920x1040 (16:9), 8450 kbps, 23,976 fps, 0,177 bpp
Аудио №1: русский / AC3 / 5.1 / 48 kHz / 448 kbps / 16 bit - Профессиональное многоголосое - [лицензия]
Аудио №2: английский / DTS / 5.1 / 48 kHz / 1510 kbps / 24 bit - (оригинал)


General
Unique ID : 192040467131244862063135312210258099347 (0x9079A60BD7F0B3CCB04D49C1BE90FC93)
Complete name : D:\_uTorrent_\Malch1shnik.2013.P.BDRip.1080p.mkv
Format : Matroska
Format version : Version 2
File size : 6.85 GiB
Duration : 1h 34mn
Overall bit rate : 10.4 Mbps
Encoded date : UTC 2015-02-05 20:38:26
Writing application : mkvmerge v7.5.0 ('Glass Culture') 64bit built on Jan 4 2015 16:48:44
Writing library : libebml v1.3.1 + libmatroska v1.4.2

Video
ID : 1
Format : AVC
Format/Info : Advanced Video Codec
Format profile : High@L4.1
Format settings, CABAC : Yes
Format settings, ReFrames : 4 frames
Codec ID : V_MPEG4/ISO/AVC
Duration : 1h 34mn
Bit rate : 8 450 Kbps
Width : 1 920 pixels
Height : 1 040 pixels
Display aspect ratio : 16:9
Frame rate : 23.976 fps
Color space : YUV
Chroma subsampling : 4:2:0
Bit depth : 8 bits
Scan type : Progressive
Bits/(Pixel*Frame) : 0.177
Stream size : 5.43 GiB (79%)
Writing library : x264 core 142 r2431 ac76440
Encoding settings : cabac=1 / ref=4 / deblock=1:0:0 / analyse=0x3:0x133 / me=umh / subme=7 / psy=1 / psy_rd=1.00:0.00 / mixed_ref=1 / me_range=16 / chroma_me=1 / trellis=1 / 8x8dct=1 / cqm=0 / deadzone=21,11 / fast_pskip=0 / chroma_qp_offset=-2 / threads=12 / lookahead_threads=2 / sliced_threads=0 / nr=0 / decimate=1 / interlaced=0 / bluray_compat=0 / constrained_intra=0 / bframes=3 / b_pyramid=2 / b_adapt=2 / b_bias=0 / direct=3 / weightb=1 / open_gop=0 / weightp=2 / keyint=250 / keyint_min=23 / scenecut=40 / intra_refresh=0 / rc_lookahead=50 / rc=2pass / mbtree=1 / bitrate=8450 / ratetol=1.0 / qcomp=0.60 / qpmin=0 / qpmax=69 / qpstep=4 / cplxblur=20.0 / qblur=0.5 / ip_ratio=1.40 / aq=1:1.00
Language : English
Default : Yes
Forced : No

Audio #1
ID : 2
Format : AC-3
Format/Info : Audio Coding 3
Mode extension : CM (complete main)
Codec ID : A_AC3
Duration : 1h 34mn
Bit rate mode : Constant
Bit rate : 448 Kbps
Channel(s) : 6 channels
Channel positions : Front: L C R, Side: L R, LFE
Sampling rate : 48.0 KHz
Bit depth : 16 bits
Compression mode : Lossy
Stream size : 302 MiB (4%)
Language : Russian
Default : Yes
Forced : No

Audio #2
ID : 3
Format : DTS
Format/Info : Digital Theater Systems
Codec ID : A_DTS
Duration : 1h 34mn
Bit rate mode : Constant
Bit rate : 1 510 Kbps
Channel(s) : 6 channels
Channel positions : Front: L C R, Side: L R, LFE
Sampling rate : 48.0 KHz
Bit depth : 24 bits
Compression mode : Lossy
Stream size : 1 018 MiB (15%)
Language : English
Default : No
Forced : No

Text #1
ID : 4
Format : UTF-8
Codec ID : S_TEXT/UTF8
Codec ID/Info : UTF-8 Plain Text
Language : Russian
Default : Yes
Forced : Yes

Text #2
ID : 5
Format : UTF-8
Codec ID : S_TEXT/UTF8
Codec ID/Info : UTF-8 Plain Text
Title : notabenoid
Language : Russian
Default : No
Forced : No

Text #3
ID : 6
Format : UTF-8
Codec ID : S_TEXT/UTF8
Codec ID/Info : UTF-8 Plain Text
Language : English
Default : No
Forced : No

[/code]
pb.wtf



Скачать Мальчишник по-ирландски через торрент http://i64.fastpic.ru/big/2015/0207/d1/f64f0dd26ddc211be4feebfefb7e0dd1.png Скачать фильм Мальчишник по-ирландски через торрент бесплантно в хорошем качестве Описание: Как организовать крутой и запоминающийся мальчишник? Есть масса способов: например, проиграть состояние в Вегасе или напиться до ... 8.7 10 7
Info! Золотая раздача, скачанное не засчитывается.
Торрент: Зарегистрирован [2015-02-07 02:54] · скачан: 72 раз
Статус: # сомнительно
Размер: 6.85 GB
Как cкачать? Как скачать Мальчишник по-ирландски через торрент | qTorrent

% Раздел Тема Автор DL S | L
Фильмы 2013 [DVDrip, WEB-DLRip, HDrip] [ 1.37 GB ] Мальчишник по-ирландски / The Stag [2013 HDRip многоголосый] кэп Скачать
1 | 0

28-11-2019 20:33  

Отключить всю рекламу на сайте

07-02-2015 04:16 Мальчишник по-ирландски Скачать торрент  

пара-тройка смешных моментов.остальное г...pb.wtf



07-02-2015 05:24 Мальчишник по-ирландски Скачать торрент  

Видео: AVC, 1920x1040 (16:9), 8450 kbps, 23,976 fps, 0,177 bpp

Запрет на размещение рипов ненадлежащего качества pb.wtf



    Дорогой пользователь! Огромная просьба, поблагодарите релизера, оцените раздачу и оставьте свои комментарий, если Вы скачали Мальчишник по-ирландски через торрент бесплатно! Внесите свою лепту в развитие PiratBit!
    Комментировать посты могут только пользователи прошедшие не сложную регистрацию
    Показать сообщения:    

    Мальчишник по-ирландски через торрент
    Скачать бесплатно Мальчишник по-ирландски
    Мальчишник по-ирландски скачать торрент
    Мальчишник по-ирландски смотреть онлайн
    Cкачать фильм Мальчишник по-ирландски бесплатно
    Мальчишник по-ирландски скачать торрент в хорошем качестве
    Мальчишник по-ирландски смотреть онлайн бесплатно в хорошем качестве


    Вы не можете начинать темы
    Вы не можете отвечать на сообщения
    Вы не можете редактировать свои сообщения
    Вы не можете удалять свои сообщения
    Вы не можете голосовать в опросах
    Вы не можете прикреплять файлы к сообщениям
    Вы можете скачивать файлы