Ссылка на приватное зеркало нашего сайта всего за 1$. Внимание количество ограничено!!!

2 сезон

iTunes

1 сезон

1

2 сезон

2 сезон

iTunes

1 сезон

RePack

30

Ultimate

ВАЖНО

ИГРА 18+

pack

RePack

MK11
pack

Забери бонус

RePack

jed

!!Акция!!

Alien_Rage

RePack

fifa19

RePack

Assassins Creed: Odyssey

RePack

NEED FOR SPEED™ PAYBACK

4 сезон

9 сезон

Бесстыжие 9 сезон

Все сериалы

все сериалы на PB.wtf

RePack

FAR CRY 5
  

Исчезновение / VANish (Брайан Брокербрейдер) [2015, США, ужасы, боевик, триллер, BDRip 720p) VO [R.A.I.M.] pb.wtf

Исчезновение через торрент pb.wtf

Размер: 4.43 GB | Добавлен: 5 лет 9 мес. назад | Торрент скачан:174 раза
Скачать  

07-02-2015 08:41 Исчезновение Скачать торрент  

Исчезновение / VANish
«The sh*t's about to hit the van»


  • Год выпуска: 2015
  • Жанр: ужасы, боевик, триллер
  • Продолжительность: 01:19:17
  • Перевод: Любительский (одноголосый) [R.A.I.M.]
  • Субтитры: английские
  • Режиссер: Bryan Bockbrader
  • В ролях:

    Майра Уолш (Emma), Тони Тодд (Officer Darrow), Дэнни Трехо (Carlos), Bryan Bockbrader (Max), Адам Гатри (Shane), Денис Дорадо (Jasmine), Эсперанса Диас (Isabella), Анджела Робитейлл (Lexi), Джо Дэвис (Ed), Майкл Мендоза (Hitman #2), Luis Deveze (Hitman #1), Дэн Брункер (Baseball Bat Neighbor)

  • Описание:
    Похищенная молодая девушка едет в фургоне с полными отморозками. Парни даже и не предполагали что вот так всё обернется, узнав что эта девушка дочь мексиканского наркобарона.
  • Рейтинг:



  • Качество: BDRip 720p
  • Формат: :MKV
  • Видео кодек: AVC
  • Аудио кодек: AC3, DTS
  • Видео: 1280x536 (2.40:1), 6137 kbps, 23,976 fps, 0,373 bpp
  • Аудио №1: русский / 2.0 / 48 kHz / 192 kbps / 16 bit
  • Аудио №2: английский / 5.1 / 48 kHz / 1510 kbps / 24 bit
  • Релиз от: GEKADOL

    Код:

    General
    Unique ID                                : 222660937337218591881245160742788658296 (0xA782EFC95CF7C921B1F4AF0A4F4DF478)
    Complete name                            : F:\VANish.2015.L1.BDRip.720p.mkv
    Format                                   : Matroska
    Format version                           : Version 4 / Version 2
    File size                                : 4.43 GiB
    Duration                                 : 1h 19mn
    Overall bit rate                         : 7 998 Kbps
    Encoded date                             : UTC 2015-02-06 19:10:19
    Writing application                      : mkvmerge v6.5.0 ('Isn't she lovely') built on Oct 20 2013 12:50:05
    Writing library                          : libebml v1.3.0 + libmatroska v1.4.1
    DURATION                                 : 01:11:34.922000000
    NUMBER_OF_FRAMES                         : 1192
    NUMBER_OF_BYTES                          : 40199
    _STATISTICS_WRITING_APP                  : mkvmerge v7.5.0 ('Glass Culture') 64bit built on Jan  4 2015 16:48:44
    _STATISTICS_WRITING_DATE_UTC             : 2015-02-01 20:18:25
    _STATISTICS_TAGS                         : BPS DURATION NUMBER_OF_FRAMES NUMBER_OF_BYTES

    Video
    ID                                       : 1
    Format                                   : AVC
    Format/Info                              : Advanced Video Codec
    Format profile                           : High@L4.1
    Format settings, CABAC                   : Yes
    Format settings, ReFrames                : 12 frames
    Codec ID                                 : V_MPEG4/ISO/AVC
    Duration                                 : 1h 19mn
    Bit rate                                 : 6 138 Kbps
    Width                                    : 1 280 pixels
    Height                                   : 536 pixels
    Display aspect ratio                     : 2.40:1
    Frame rate                               : 23.976 fps
    Color space                              : YUV
    Chroma subsampling                       : 4:2:0
    Bit depth                                : 8 bits
    Scan type                                : Progressive
    Bits/(Pixel*Frame)                       : 0.373
    Stream size                              : 3.40 GiB (77%)
    Writing library                          : x264 core 142 r2431+42 c69a006 tMod [8-bit@all X86_64]
    Encoding settings                        : cabac=1 / ref=12 / deblock=1:-3:-3 / analyse=0x3:0x133 / me=umh / subme=11 / psy=1 / fade_compensate=0.00 / psy_rd=1.05:0.00 / mixed_ref=1 / me_range=24 / chroma_me=1 / trellis=2 / 8x8dct=1 / cqm=0 / deadzone=21,11 / fast_pskip=0 / chroma_qp_offset=-2 / threads=24 / lookahead_threads=4 / sliced_threads=0 / nr=0 / decimate=0 / interlaced=0 / bluray_compat=0 / constrained_intra=0 / fgo=0 / bframes=9 / b_pyramid=2 / b_adapt=2 / b_bias=0 / direct=3 / weightb=1 / open_gop=0 / weightp=2 / keyint=250 / keyint_min=23 / scenecut=40 / intra_refresh=0 / rc=crf / mbtree=0 / crf=17.5000 / qcomp=0.65 / qpmin=0:0:0 / qpmax=69:69:69 / qpstep=4 / ip_ratio=1.20 / pb_ratio=1.10 / aq=4:0.65 / aq-sensitivity=10.00 / aq-factor=1.00:1.00:1.00 / aq2=0 / aq3=0
    Language                                 : English
    Default                                  : Yes
    Forced                                   : No
    DURATION                                 : 01:19:17.295000000
    NUMBER_OF_FRAMES                         : 114061
    NUMBER_OF_BYTES                          : 3743207867
    _STATISTICS_WRITING_APP                  : mkvmerge v7.5.0 ('Glass Culture') 64bit built on Jan  4 2015 16:48:44
    _STATISTICS_WRITING_DATE_UTC             : 2015-02-01 20:18:25
    _STATISTICS_TAGS                         : BPS DURATION NUMBER_OF_FRAMES NUMBER_OF_BYTES

    Audio #1
    ID                                       : 2
    Format                                   : AC-3
    Format/Info                              : Audio Coding 3
    Mode extension                           : CM (complete main)
    Codec ID                                 : A_AC3
    Duration                                 : 1h 19mn
    Bit rate mode                            : Constant
    Bit rate                                 : 192 Kbps
    Channel(s)                               : 2 channels
    Channel positions                        : Front: L R
    Sampling rate                            : 48.0 KHz
    Bit depth                                : 16 bits
    Compression mode                         : Lossy
    Stream size                              : 109 MiB (2%)
    Language                                 : Russian
    Default                                  : Yes
    Forced                                   : No

    Audio #2
    ID                                       : 3
    Format                                   : DTS
    Format/Info                              : Digital Theater Systems
    Codec ID                                 : A_DTS
    Duration                                 : 1h 19mn
    Bit rate mode                            : Constant
    Bit rate                                 : 1 510 Kbps
    Channel(s)                               : 6 channels
    Channel positions                        : Front: L C R, Side: L R, LFE
    Sampling rate                            : 48.0 KHz
    Bit depth                                : 24 bits
    Compression mode                         : Lossy
    Stream size                              : 856 MiB (19%)
    Language                                 : English
    Default                                  : No
    Forced                                   : No

    Text
    ID                                       : 4
    Format                                   : UTF-8
    Codec ID                                 : S_TEXT/UTF8
    Codec ID/Info                            : UTF-8 Plain Text
    Language                                 : English
    Default                                  : No
    Forced                                   : No

    Menu
    00:00:00.000                             : en:00:00:00.000
    00:02:54.174                             : en:00:02:54.174
    00:07:51.471                             : en:00:07:51.471
    00:11:52.712                             : en:00:11:52.712
    00:16:47.006                             : en:00:16:47.006
    00:20:36.235                             : en:00:20:36.235
    00:26:41.600                             : en:00:26:41.600
    00:30:24.823                             : en:00:30:24.823
    00:37:49.267                             : en:00:37:49.267
    00:46:38.796                             : en:00:46:38.796
    00:52:12.129                             : en:00:52:12.129
    00:58:04.481                             : en:00:58:04.481
    01:04:35.872                             : en:01:04:35.872
    01:09:24.786                             : en:01:09:24.786
    01:12:46.362                             : en:01:12:46.362




    Внимание! Присутствует ненормативная лексика!
    Скриншоты:



    pb.wtf



  • Скачать Исчезновение через торрент http://i64.fastpic.ru/big/2015/0207/87/aaeef875c2bb0e58f8db3a3fc102df87.jpg Скачать фильм Исчезновение через торрент бесплантно в хорошем качестве Описание: Похищенная молодая девушка едет в фургоне с полными отморозками. Парни даже и не предполагали что вот так всё обернется, узнав ... 10 10 7
    Торрент: Зарегистрирован [2015-02-07 08:41] · скачан: 174 раз
    Статус: T временная
    Размер: 4.43 GB
    Как cкачать? Как скачать Исчезновение через торрент | qTorrent

    % Раздел Тема Автор DL S | L
    Фильмы (Blu-ray, BD-Remux, HDDVD) [ 17.14 GB ] Исчезновение / The Vanishing [2018 BDRemux 1080p] MVO [СВ-Студия] sheker187 Скачать
    2 | 0
    Фильмы 2018 [DVDrip, WEB-DLRip, HDrip] (DUB, MVO) [ 1.99 GB ] Исчезновение / The Vanishing / Keepers [2018 BDRip-AVC] MVO [СВ-Студия] bober100 Скачать
    1 | 0
    Фильмы 2017 [DVDrip, WEB-DLRip, HDrip] (DUB, MVO) [ 1.41 GB ] Исчезновение Сидни Холла / The Vanishing of Sidney Hall [2017 BDRip] MVO Twi7ter Скачать
    1 | 0
    Фильмы 2017 [DVDrip, WEB-DLRip, HDrip] (DUB, MVO) [ 1.53 GB ] Исчезновение Сидни Холла / The Vanishing of Sidney Hall [2017 BDRip-AVC] MVO bober100 Скачать
    1 | 0
    Фильмы 2017 [DVDrip, WEB-DLRip, HDrip] (DUB, MVO) [ 2.13 GB ] Исчезновение Сидни Холла / The Vanishing of Sidney Hall [2017 BDRip] MVO Twi7ter Скачать
    2 | 0
    R.G. Resident & PiratVoice - Фильмы, Видео [ 2.05 GB ] Исчезновение Сидни Холла / The Vanishing of Sidney Hall [2017 BDRip от R.G. Resident] MVO -Lexx- Скачать
    1 | 0
    Фильмы [HD 720p, 1080p] (Хороший звук DUB, MVO) [ 8.75 GB ] Исчезновение Сидни Холла / The Vanishing of Sidney Hall [2017 BDRip 1080p] MVO -Lexx- Скачать
    1 | 0


    Последний раз редактировалось: GEKADOL (2015-02-07 09:36), всего редактировалось 1 раз

    28-11-2019 20:33  

    Отключить всю рекламу на сайте

    07-02-2015 09:23 Исчезновение Скачать торрент  

    Цитата:

    Исчезновение / VANish (Брайан Брокербрейдер) [2015, США, ужасы, боевик, триллер, BDRip 720p) VO [R.A.I.M.]

    просто бомба,хороший ,понравился.pb.wtf



    07-02-2015 10:38 Исчезновение Скачать торрент  

    Впечатление от трейлера: как будто весь фильм снимали в одном фургоне и в радиусе 2-х метров этого фургона.pb.wtf



    07-02-2015 13:42 Исчезновение Скачать торрент  

    А фильм то где снимали ?
    Страна: Россия например !!!pb.wtf



      Дорогой пользователь! Огромная просьба, поблагодарите релизера, оцените раздачу и оставьте свои комментарий, если Вы скачали Исчезновение через торрент бесплатно! Внесите свою лепту в развитие PiratBit!
      Комментировать посты могут только пользователи прошедшие не сложную регистрацию
      Показать сообщения:    

      Исчезновение через торрент
      Скачать бесплатно Исчезновение
      Исчезновение скачать торрент
      Исчезновение смотреть онлайн
      Cкачать фильм Исчезновение бесплатно
      Исчезновение скачать торрент в хорошем качестве
      Исчезновение смотреть онлайн бесплатно в хорошем качестве


      Вы не можете начинать темы
      Вы не можете отвечать на сообщения
      Вы не можете редактировать свои сообщения
      Вы не можете удалять свои сообщения
      Вы не можете голосовать в опросах
      Вы не можете прикреплять файлы к сообщениям
      Вы можете скачивать файлы