Ссылка на приватное зеркало нашего сайта всего за 1$. Внимание количество ограничено!!!

2 сезон

iTunes

1 сезон

1

2 сезон

2 сезон

iTunes

1 сезон

RePack

30

Новинка

ВАЖНО

ИГРА 18+

pack

RePack

MK11
pack

Забери бонус

RePack

jed

!!Акция!!

Alien_Rage

RePack

fifa19

RePack

Assassins Creed: Odyssey

RePack

NEED FOR SPEED™ PAYBACK

4 сезон

9 сезон

Бесстыжие 9 сезон

Все сериалы

все сериалы на PB.wtf

RePack

FAR CRY 5
  

Фортитьюд / Fortitude / Сезон: 1 / Серии 1-3 из 12 (Сэм Миллер / Sam Miller, Хетти Макдональд / Hettie Macdonald, Ник Харран / Nick Hurran) [2015, Великобритания, триллер, драма, детектив, WEB-DLRip] DVO [Студия "Paradox"] pb.wtf

Фортитьюд через торрент pb.wtf

Размер: 2.06 GB | Добавлен: 5 лет 9 мес. назад | Торрент скачан:27 раз
Скачать  

07-02-2015 09:21 Фортитьюд Скачать торрент  

Фортитьюд / Fortitude


  • Год выпуска: 2015
  • Страна: Великобритания
  • Жанр: триллер, драма, детектив
  • Продолжительность: 00:48:06 (Серия)
  • Перевод: Профессиональный двухголосый [Студия "Paradox"]

  • Режиссер: Сэм Миллер / Sam Miller, Хетти Макдональд / Hettie Macdonald, Ник Харран / Nick Hurran
  • В ролях:

    Ричард Дормер (Dan Anderssen), Софи Гробёль (Governor Odegard), Майкл Гэмбон (Henry Tyson), Кристофер Экклстон (Professor Stoddart), Джонни Харрис (Ronnie Morgan), Николас Пиннок (Frank Sutter), Джессика Рэйн (Jules Sutter), Вероника Эчеги (Elena Ledesma), Сиенна Гиллори (Natalie Yelburton), Стэнли Туччи (DCI Morton), Люк Тредэвэй (Vincent Rattrey), Бьерн Хлинур Харальдссон (Eric Odegard)

  • Описание:
    Fortitude – небольшой городок в Арктике, из-за полного отсутствия преступности считающийся самым безопасным местом на земле. Но вот однажды в городе находят тело убитого британского ученого . Шериф Андерсон и командированный в город детектив полиции Милтон Колдуэлл приступают к расследованию. И чем дальше заходит расследование, тем шире становится список подозреваемых, а поведение шерифа и детектива – все более странным и заставляющим их все меньше доверять друг другу.
  • Рейтинг:



  • Качество: WEB-DLRip
  • Формат: :AVI
  • Видео кодек: XviD
  • Аудио кодек: AC3
  • Видео: 720x400 (16:9), 1867 kbps, 25 fps, 0,259 bpp
  • Аудио: 2.0 / 48 kHz / 192 kbps / 16 bit
  • Релиз от: GEKADOL

    Код:

    Внимание! Раздача ведётся путём добавления новых серий; при каждом добавлении создаётся новый торрент. Чтобы начать докачку новой серии, пользователям необходимо сделать следующее:
    (1) остановить скачивание,
    (2) удалить старый торрент у себя из клиента (старые серии удалять не надо),
    (3) скачать новый торрент и запустить его у себя в клиенте вместо старого, при этом указать клиенту путь в старую папку куда и должно происходить скачивание новых серий.
    Ваш клиент при этом должен произвести хеширование (проверку) старой папки (если не производит сам - помогите ему сделать это), и будет докачивать только те серии которых у вас ещё нет. Старые серии при этом не удаляются, а продолжают раздаваться!
    Eсли вы уже удалили старые серии, то предотвратить повторную закачку старых серий можно, отжав галочку в соответствующих местах при запуске нового торрента. По возможности, желательно не удалять старые серии как можно дольше чтобы релизёр не столько продолжал раздавать старые серии, а смог сконцентрироваться на новых.


    Код:

    General
    Complete name                            : I:\Фортитьюд.S01.WEB-DLRip.PARADOX\Fortitude.S01E01.P.WEB-DLRip.PARADOX.avi
    Format                                   : AVI
    Format/Info                              : Audio Video Interleave
    File size                                : 712 MiB
    Duration                                 : 48mn 6s
    Overall bit rate                         : 2 069 Kbps
    Writing application                      : VirtualDubMod 1.5.10.2 (build 2540/release)
    Writing library                          : VirtualDubMod build 2540/release

    Video
    ID                                       : 0
    Format                                   : MPEG-4 Visual
    Format profile                           : Advanced Simple@L5
    Format settings, BVOP                    : 1
    Format settings, QPel                    : No
    Format settings, GMC                     : No warppoints
    Format settings, Matrix                  : Default (H.263)
    Codec ID                                 : XVID
    Codec ID/Hint                            : XviD
    Duration                                 : 48mn 6s
    Bit rate                                 : 1 868 Kbps
    Width                                    : 720 pixels
    Height                                   : 400 pixels
    Display aspect ratio                     : 16:9
    Frame rate                               : 25.000 fps
    Color space                              : YUV
    Chroma subsampling                       : 4:2:0
    Bit depth                                : 8 bits
    Scan type                                : Progressive
    Compression mode                         : Lossy
    Bits/(Pixel*Frame)                       : 0.259
    Stream size                              : 643 MiB (90%)
    Writing library                          : XviD 1.2.1 (UTC 2008-12-04)

    Audio
    ID                                       : 1
    Format                                   : AC-3
    Format/Info                              : Audio Coding 3
    Mode extension                           : CM (complete main)
    Codec ID                                 : 2000
    Duration                                 : 48mn 6s
    Bit rate mode                            : Constant
    Bit rate                                 : 192 Kbps
    Channel(s)                               : 2 channels
    Channel positions                        : Front: L R
    Sampling rate                            : 48.0 KHz
    Bit depth                                : 16 bits
    Compression mode                         : Lossy
    Stream size                              : 66.1 MiB (9%)
    Alignment                                : Split accross interleaves
    Interleave, duration                     : 40 ms (1.00 video frame)
    Interleave, preload duration             : 500 ms




    Скриншоты:
    скриншот   скриншот   скриншот   скриншот   скриншот  
    скриншот  

    Раздача ведётся путём добавления новых серий. Добавлена 3 серия (19.02.2015).Просьба перекачать торрент файл.

    pb.wtf



  • Скачать Фортитьюд через торрент http://i63.fastpic.ru/big/2015/0207/54/0a8e3caa6cdda2053d0e45bf13328a54.jpg Скачать фильм Фортитьюд через торрент бесплантно в хорошем качестве Описание: Fortitude – небольшой городок в Арктике, из-за полного отсутствия преступности считающийся самым безопасным местом на земле. Но ... 10 10 6
    Торрент: Зарегистрирован [2015-02-19 07:02] · скачан: 27 раз
    Статус: √ проверено
    Размер: 2.06 GB
    Как cкачать? Как скачать Фортитьюд через торрент | qTorrent

    28-11-2019 20:33  

    Отключить всю рекламу на сайте

      Дорогой пользователь! Огромная просьба, поблагодарите релизера, оцените раздачу и оставьте свои комментарий, если Вы скачали Фортитьюд через торрент бесплатно! Внесите свою лепту в развитие PiratBit!
      Комментировать посты могут только пользователи прошедшие не сложную регистрацию
      Показать сообщения:    

      Фортитьюд через торрент
      Скачать бесплатно Фортитьюд
      Фортитьюд скачать торрент
      Фортитьюд смотреть онлайн
      Cкачать фильм Фортитьюд бесплатно
      Фортитьюд скачать торрент в хорошем качестве
      Фортитьюд смотреть онлайн бесплатно в хорошем качестве


      Вы не можете начинать темы
      Вы не можете отвечать на сообщения
      Вы не можете редактировать свои сообщения
      Вы не можете удалять свои сообщения
      Вы не можете голосовать в опросах
      Вы не можете прикреплять файлы к сообщениям
      Вы можете скачивать файлы